2 сезон

iTunes

1 сезон

1

iTunes

iTunes

iTunes

1 сезон

RePack

30

ИГРА 18+

pack

ВАЖНО

!!Акция!!

Alien_RageХит недели

RePack

MK11
pack

Забери бонус

RePack

jed

!!Акция!!

Alien_Rage

RePack

fifa19

RePack

Assassins Creed: Odyssey

RePack

NEED FOR SPEED™ PAYBACK

4 сезон

9 сезон

Бесстыжие 9 сезон

Все сериалы

все сериалы на PB.wtf

RePack

FAR CRY 5
  

Пощёчина / La Gifle (Клод Пиното) [1974, драма, мелодрама, комедия, BDRip 720p] MVO, DVO pb.wtf

Пощёчина через торрент pb.wtf

Размер: 5.32 GB | Добавлен: 6 лет назад | Торрент скачан:18 раз
Скачать  

19-10-2014 07:10 Пощёчина Скачать торрент  

Пощёчина / La Gifle

Год выпуска: 1974
Страна: Франция, Италия
Жанр: драма, мелодрама, комедия
Продолжительность: 01:43:55
Перевод: профессиональный многоголосый, профессиональный двухголосый
Субтитры: русские, английские

Режиссёр: Клод Пиното

В ролях: Лино Вентура, Изабель Аджани, Анни Жирардо, Николь Курсель, Франсис Перрен, Жак Списсер, Мишель Омон, Натали Бэй, Ксавьер Желен, Жорж Вильсон, Анник Алан, Поль Бисцилья, Робер Дальбан, Франсис Лемер, Жак Мори, Жанин Сушон, Роберт Харди, Шарль Жерар

Описание: С каждым такое бывает, когда наступит вдруг чёрная полоса в жизни; когда всё, чего не коснись, плохо. Вот и на Жана Дулеана, преподавателя географии в лицее, неприятности посыпались одна за другой. В полиции на него завели дело (избил двух стражей закона, защищая студента), и ему грозит увольнение; любовница, с которой прекрасно ладил много лет, вдруг ушла; обожаемая 18-летняя дочь забросила учёбу и собирается покинуть родной дом, чтобы поселиться с бойфрендом. Но жизнь, как известно, так устроена, что за чёрной полосой неизбежно следует белая…



Качество: BDRip 720p Сравнение с исходником
Формат: MKV
Видео кодек: H.264
Видео: 1196x720, 6605 Kbps, 24 кадра/с, 0.320 bpp
Аудио 1: русский, AC3, 192 kbps, 2 ch, 48 kHz [профессиональный многоголосый]
Аудио 2: русский, AC3, 192 kbps, 2 ch, 48 kHz [профессиональный двухголосый, Cinema Prestige]
Аудио 3: французский, AC3, 192 kbps, 2 ch, 48 kHz [оригинал]

Имеются неименованные главы/чаптеры.

Автор рипа msltel
Приз Луи Деллюка, специальная премия «Давид» Донателло» в Италии актрисе Изабель Аджани.
frame I:943 Avg QP:17.17 size:105039
frame P:28789 Avg QP:18.22 size: 61998
frame B:119908 Avg QP:20.10 size: 28148

Общее
Уникальный идентификатор : 174793601141068624610006776682450385589 (0x838005E6C48ABDF7AAC3B833A47DFAB5)
Полное имя : D:VideoPoshechina.1974.BDRip.720p.mkv
Формат : Matroska
Версия формата : Version 4 / Version 2
Размер файла : 5,32 Гбайт
Продолжительность : 1 ч. 43 м.
Общий поток : 7326 Кбит/сек
Дата кодирования : UTC 2014-10-19 05:00:47
Программа кодирования : mkvmerge v6.9.1 ('Blue Panther') 64bit built on Apr 18 2014 18:23:38
Библиотека кодирования : libebml v1.3.0 + libmatroska v1.4.1

Видео
Идентификатор : 1
Формат : AVC
Формат/Информация : Advanced Video Codec
Профиль формата : High@L4.1
Параметр CABAC формата : Да
Параметр ReFrames формата : 9 кадров
Идентификатор кодека : V_MPEG4/ISO/AVC
Продолжительность : 1 ч. 43 м.
Битрейт : 6605 Кбит/сек
Ширина : 1196 пикселей
Высота : 720 пикселей
Соотношение сторон : 1,661
Режим частоты кадров : Постоянный
Частота кадров : 24,000 кадра/сек
Цветовое пространство : YUV
Субдискретизация насыщенности : 4:2:0
Битовая глубина : 8 бит
Тип развёртки : Прогрессивная
Бит/(Пиксели*Кадры) : 0.320
Размер потока : 4,79 Гбайт (90%)
Заголовок : BDRip -- STarankov
Библиотека кодирования : x264 core 142 r2431 ac76440
Настройки программы : cabac=1 / ref=9 / deblock=1:-1:-1 / analyse=0x3:0x113 / me=umh / subme=10 / psy=1 / psy_rd=1.00:0.15 / mixed_ref=1 / me_range=32 / chroma_me=1 / trellis=2 / 8x8dct=1 / cqm=0 / deadzone=21,11 / fast_pskip=1 / chroma_qp_offset=-3 / threads=6 / lookahead_threads=1 / sliced_threads=0 / nr=0 / decimate=1 / interlaced=0 / bluray_compat=0 / constrained_intra=0 / bframes=8 / b_pyramid=2 / b_adapt=2 / b_bias=0 / direct=3 / weightb=1 / open_gop=0 / weightp=2 / keyint=230 / keyint_min=23 / scenecut=40 / intra_refresh=0 / rc_lookahead=40 / rc=crf / mbtree=0 / crf=18.0 / qcomp=0.60 / qpmin=0 / qpmax=69 / qpstep=4 / vbv_maxrate=50000 / vbv_bufsize=62500 / crf_max=0.0 / nal_hrd=none / filler=0 / ip_ratio=1.40 / pb_ratio=1.30 / aq=1:1.00
Язык : French
Default : Да
Forced : Нет

Аудио #1
Идентификатор : 2
Формат : AC-3
Формат/Информация : Audio Coding 3
Расширение режима : CM (complete main)
Параметр Endianness формата : Big
Идентификатор кодека : A_AC3
Продолжительность : 1 ч. 43 м.
Вид битрейта : Постоянный
Битрейт : 192 Кбит/сек
Каналы : 2 канала
Расположение каналов : Front: L R
Частота : 48,0 КГц
Битовая глубина : 16 бит
Метод сжатия : С потерями
Размер потока : 143 Мбайт (3%)
Заголовок : MVO
Язык : Russian
Default : Да
Forced : Нет

Аудио #2
Идентификатор : 3
Формат : AC-3
Формат/Информация : Audio Coding 3
Расширение режима : CM (complete main)
Параметр Endianness формата : Big
Идентификатор кодека : A_AC3
Продолжительность : 1 ч. 43 м.
Вид битрейта : Постоянный
Битрейт : 192 Кбит/сек
Каналы : 2 канала
Расположение каналов : Front: L R
Частота : 48,0 КГц
Битовая глубина : 16 бит
Метод сжатия : С потерями
Размер потока : 143 Мбайт (3%)
Заголовок : DVO (Cinema Prestige)
Язык : Russian
Default : Нет
Forced : Нет

Аудио #3
Идентификатор : 4
Формат : AC-3
Формат/Информация : Audio Coding 3
Расширение режима : CM (complete main)
Параметр Endianness формата : Big
Идентификатор кодека : A_AC3
Продолжительность : 1 ч. 43 м.
Вид битрейта : Постоянный
Битрейт : 192 Кбит/сек
Каналы : 2 канала
Расположение каналов : Front: L R
Частота : 48,0 КГц
Битовая глубина : 16 бит
Метод сжатия : С потерями
Размер потока : 143 Мбайт (3%)
Заголовок : Original
Язык : French
Default : Нет
Forced : Нет

Текст #1
Идентификатор : 5
Формат : UTF-8
Идентификатор кодека : S_TEXT/UTF8
Идентификатор кодека/Информация : UTF-8 Plain Text
Заголовок : русский
Язык : Russian
Default : Нет
Forced : Нет

Текст #2
Идентификатор : 6
Формат : UTF-8
Идентификатор кодека : S_TEXT/UTF8
Идентификатор кодека/Информация : UTF-8 Plain Text
Заголовок : английский
Default : Нет
Forced : Нет

Меню
00:00:00.000 : :Chapter 01
00:08:45.750 : :Chapter 02
00:16:36.375 : :Chapter 03
00:25:02.375 : :Chapter 04
00:33:33.290 : :Chapter 05
00:43:49.750 : :Chapter 06
00:50:45.750 : :Chapter 07
00:58:55.416 : :Chapter 08
01:06:51.708 : :Chapter 09
01:16:30.457 : :Chapter 10
01:24:21.457 : :Chapter 11
01:34:06.666 : :Chapter 12
01:43:54.750 : :Chapter 13
pb.wtf



Скачать Пощёчина через торрент http://i67.fastpic.ru/big/2014/1018/69/77135aca8448c71c836c7a203f8b0b69.jpg Скачать фильм Пощёчина через торрент бесплантно в хорошем качестве Описание: С каждым такое бывает, когда наступит вдруг чёрная полоса в жизни; когда всё, чего не коснись, плохо. Вот и на Жана Дулеана, ... 8.3 10 3
Торрент: Зарегистрирован [2014-10-19 07:10] · скачан: 18 раз
Статус: √ проверено
Размер: 5.32 GB
Как cкачать? Как скачать Пощёчина через торрент | qTorrent

% Раздел Тема Автор DL S | L
Фильмы [HD 720p, 1080p] (Хороший звук DUB, MVO) [ 12.04 GB ] Пощёчина / La Gifle [1974 BDRip 1080p] MVO DVO msltel Скачать
1 | 0

28-11-2019 20:33  

Отключить всю рекламу на сайте

    Дорогой пользователь! Огромная просьба, поблагодарите релизера, оцените раздачу и оставьте свои комментарий, если Вы скачали Пощёчина через торрент бесплатно! Внесите свою лепту в развитие PiratBit!
    Комментировать посты могут только пользователи прошедшие не сложную регистрацию
    Показать сообщения:    

    Пощёчина через торрент
    Скачать бесплатно Пощёчина
    Пощёчина скачать торрент
    Пощёчина смотреть онлайн
    Cкачать фильм Пощёчина бесплатно
    Пощёчина скачать торрент в хорошем качестве
    Пощёчина смотреть онлайн бесплатно в хорошем качестве


    Вы не можете начинать темы
    Вы не можете отвечать на сообщения
    Вы не можете редактировать свои сообщения
    Вы не можете удалять свои сообщения
    Вы не можете голосовать в опросах
    Вы не можете прикреплять файлы к сообщениям
    Вы можете скачивать файлы