Ссылка на приватное зеркало нашего сайта всего за 1$. Внимание количество ограничено!!!

2 сезон

iTunes

1 сезон

1

iTunes

iTunes

iTunes

1 сезон

RePack

30

ИГРА 18+

pack

ВАЖНО

!!Акция!!

Alien_RageХит недели

RePack

MK11
pack

Забери бонус

RePack

jed

!!Акция!!

Alien_Rage

RePack

fifa19

RePack

Assassins Creed: Odyssey

RePack

NEED FOR SPEED™ PAYBACK

4 сезон

9 сезон

Бесстыжие 9 сезон

Все сериалы

все сериалы на PB.wtf

RePack

FAR CRY 5
  

Вавилон / Babel (Алехандро Гонсалес Иньярриту) [2006, драма, BDRip 720p] DUB, MVO, DVO, AVO pb.wtf

Вавилон через торрент pb.wtf

Размер: 13.19 GB | Добавлен: 6 лет назад | Торрент скачан:48 раз
Скачать  

19-10-2014 09:01 Вавилон Скачать торрент  

Вавилон / Babel

Год выпуска: 2006
Страна: США, Франция, Мексика
Жанр: драма
Продолжительность: 02:23:29
Перевод: дублированный, профессиональный многоголосый, профессиональный двухголосый, авторский
Субтитры: русские, английские (все отдельно)

Режиссёр: Алехандро Гонсалес Иньярриту

В ролях: Брэд Питт, Кейт Бланшетт, Гаэль Гарсия Берналь, Махима Шодри, Джейми МакБрайд, Кодзи Якусё, Шилпа Шетти, Линси Бошам, Пол Террелл Клэйтон, Фернандес Маттос Дульче, Натан Гэмбл, Элль Фэннинг, Адриана Барраза, Ринко Кикучи

Описание: Действие фильма разворачивается в Марокко, Мексике и Японии, а отправной точкой сюжета становится трагедия, которую супруги Ричард и Сюзан переживают во время своей туристической поездки по Марокко. Сюзан становится жертвой шальной пули, выпущенной из ружья по туристическому автобусу двумя местными мальчишками. В это же время двое детей Ричарда и Сюзан, оставленные под присмотр няни-мексиканки, отправляются вместе с ней в Мексику на свадьбу её сына, и это путешествие оказывается, в итоге, далеко не из лёгких. И, наконец, в Токио тяжело переживающая самоубийство матери глухонемая студентка Чиёко ведёт себя вызывающе, вступает в перепалку с отцом и разными способами срывает свое зло на окружающих…



Качество: BDRip 720p Сравнение с исходником
Формат: MKV
Видео кодек: H.264
Видео: 1280x694, 6789 kbps, 23.976 кадра/с, 0.319 bpp
Аудио 1: русский, AC3, 448 kbps, 6 ch, 48 kHz [дублированный с добавлением многоголоски]
Аудио 2: русский, AC3, 448 kbps, 6 ch, 48 kHz [профессиональный многоголосый, Киномания]
Аудио 3: русский, AC3, 448 kbps, 6 ch, 48 kHz [профессиональный двухголосый, Пётр Гланц и Инна Королёва]
Аудио 4: русский, AC3, 448 kbps, 6 ch, 48 kHz [авторский, Юрий Сербин]

Отдельные файлы
Аудио: русский, DTS, 755 kbps, 6 ch, 48 kHz [дублированный с добавлением многоголоски]
Аудио: русский, DTS, 1509 kbps, 6 ch, 48 kHz [профессиональный двухголосый, Пётр Гланц и Инна Королёва]
Аудио: русский, DTS, 1509 kbps, 6 ch, 48 kHz [авторский, Юрий Сербин]
Аудио: английский, AC3, 640 kbps, 6 ch, 48 kHz [оригинал]

Имеются неименованные главы/чаптеры.

Автор рипа msltel
Золотой орел, 2008 год
Номинации (1):
Лучший зарубежный фильм в российском прокате — «Вест»

Оскар, 2007 год
Победитель (1):
Лучший саундтрек

Номинации (6):
Лучший фильм
Лучшая женская роль второго плана (Адриана Барраса)
Лучшая женская роль второго плана (Ринко Кикути)
Лучший режиссер (Алехандро Гонсалес Иньярриту)
Лучший оригинальный сценарий
Лучший монтаж

Золотой глобус, 2007 год
Победитель (1):
Лучший фильм (драма)

Номинации (6):
Лучшая мужская роль второго плана (Брэд Питт)
Лучшая женская роль второго плана (Адриана Барраса)
Лучшая женская роль второго плана (Ринко Кикути)
Лучший режиссер (Алехандро Гонсалес Иньярриту)
Лучший сценарий
Лучший саундтрек

Британская академия, 2007 год
Победитель (1):
Премия имени Энтони Эскуита за достижения в создании музыки к фильму

Номинации (6):
Лучший фильм
Лучший оригинальный сценарий
Лучшая работа оператора
Лучший звук
Лучший монтаж
Премия имени Дэвида Лина за достижения в режиссуре (Алехандро Гонсалес Иньярриту)

Сезар, 2007 год
Номинации (1):
Лучший фильм на иностранном языке

Премия Гильдии актеров, 2007 год
Номинации (3):
Лучший актерский состав
Лучшая женская роль второго плана (Адриана Барраса)
Лучшая женская роль второго плана (Ринко Кикути)

Каннский кинофестиваль, 2006 год
Победитель (3):
Лучший режиссер (Алехандро Гонсалес Иньярриту)
Технический гран-при
Приз экуменического (христианского) жюри

Номинации (1):
Золотая пальмовая ветвь
Общее
Полное имя : D:VideoVavilon.2006.BDRip.720pVavilon.2006.AVO.rus.Ю.Сербин.dts
Формат : DTS
Формат/Информация : Digital Theater Systems
Размер файла : 1,51 Гбайт
Продолжительность : 2 ч. 23 м.
Режим общего битрейта : Постоянный
Общий поток : 1510 Кбит/сек

Аудио
Формат : DTS
Формат/Информация : Digital Theater Systems
Режим : 16
Параметр Endianness формата : Big
Продолжительность : 2 ч. 23 м.
Вид битрейта : Постоянный
Битрейт : 1510 Кбит/сек
Каналы : 6 каналов
Расположение каналов : Front: L C R, Side: L R, LFE
Частота : 48,0 КГц
Битовая глубина : 24 бит
Метод сжатия : С потерями
Размер потока : 1,51 Гбайт

Общее
Уникальный идентификатор : 190133955113577596381687054478283832798 (0x8F0A77BF1B3AFC1B876DC3DBDCC6FDDE)
Полное имя : D:VideoVavilon.2006.BDRip.720pVavilon.2006.BDRip.720p.mkv
Формат : Matroska
Версия формата : Version 4 / Version 2
Размер файла : 8,77 Гбайт
Продолжительность : 2 ч. 23 м.
Общий поток : 8755 Кбит/сек
Дата кодирования : UTC 2014-10-18 18:37:43
Программа кодирования : mkvmerge v6.9.1 ('Blue Panther') 64bit built on Apr 18 2014 18:23:38
Библиотека кодирования : libebml v1.3.0 + libmatroska v1.4.1

Видео
Идентификатор : 1
Формат : AVC
Формат/Информация : Advanced Video Codec
Профиль формата : High@L4.1
Параметр CABAC формата : Да
Параметр ReFrames формата : 9 кадров
Идентификатор кодека : V_MPEG4/ISO/AVC
Продолжительность : 2 ч. 23 м.
Битрейт : 6789 Кбит/сек
Ширина : 1280 пикселей
Высота : 694 пикселя
Соотношение сторон : 1,85:1
Режим частоты кадров : Постоянный
Частота кадров : 23,976 кадра/сек
Цветовое пространство : YUV
Субдискретизация насыщенности : 4:2:0
Битовая глубина : 8 бит
Тип развёртки : Прогрессивная
Бит/(Пиксели*Кадры) : 0.319
Размер потока : 6,80 Гбайт (78%)
Заголовок : BDRip -- STarankov
Библиотека кодирования : x264 core 142 r2431 ac76440
Настройки программы : cabac=1 / ref=9 / deblock=1:-1:-1 / analyse=0x3:0x113 / me=umh / subme=10 / psy=1 / psy_rd=1.00:0.15 / mixed_ref=1 / me_range=32 / chroma_me=1 / trellis=2 / 8x8dct=1 / cqm=0 / deadzone=21,11 / fast_pskip=1 / chroma_qp_offset=-3 / threads=6 / lookahead_threads=1 / sliced_threads=0 / nr=0 / decimate=1 / interlaced=0 / bluray_compat=0 / constrained_intra=0 / bframes=8 / b_pyramid=2 / b_adapt=2 / b_bias=0 / direct=3 / weightb=1 / open_gop=0 / weightp=2 / keyint=230 / keyint_min=23 / scenecut=40 / intra_refresh=0 / rc_lookahead=40 / rc=crf / mbtree=0 / crf=20.5 / qcomp=0.60 / qpmin=0 / qpmax=69 / qpstep=4 / vbv_maxrate=50000 / vbv_bufsize=62500 / crf_max=0.0 / nal_hrd=none / filler=0 / ip_ratio=1.40 / pb_ratio=1.30 / aq=1:1.00
Язык : English
Default : Да
Forced : Нет

Аудио #1
Идентификатор : 2
Формат : AC-3
Формат/Информация : Audio Coding 3
Расширение режима : CM (complete main)
Параметр Endianness формата : Big
Идентификатор кодека : A_AC3
Продолжительность : 2 ч. 23 м.
Вид битрейта : Постоянный
Битрейт : 448 Кбит/сек
Каналы : 6 каналов
Расположение каналов : Front: L C R, Side: L R, LFE
Частота : 48,0 КГц
Битовая глубина : 16 бит
Метод сжатия : С потерями
Размер потока : 460 Мбайт (5%)
Заголовок : DUB
Язык : Russian
Default : Да
Forced : Нет

Аудио #2
Идентификатор : 3
Формат : AC-3
Формат/Информация : Audio Coding 3
Расширение режима : CM (complete main)
Параметр Endianness формата : Big
Идентификатор кодека : A_AC3
Продолжительность : 2 ч. 23 м.
Вид битрейта : Постоянный
Битрейт : 448 Кбит/сек
Каналы : 6 каналов
Расположение каналов : Front: L C R, Side: L R, LFE
Частота : 48,0 КГц
Битовая глубина : 16 бит
Метод сжатия : С потерями
Размер потока : 460 Мбайт (5%)
Заголовок : MVO (Киномания)
Язык : Russian
Default : Нет
Forced : Нет

Аудио #3
Идентификатор : 4
Формат : AC-3
Формат/Информация : Audio Coding 3
Расширение режима : CM (complete main)
Параметр Endianness формата : Big
Идентификатор кодека : A_AC3
Продолжительность : 2 ч. 23 м.
Вид битрейта : Постоянный
Битрейт : 448 Кбит/сек
Каналы : 6 каналов
Расположение каналов : Front: L C R, Side: L R, LFE
Частота : 48,0 КГц
Битовая глубина : 16 бит
Метод сжатия : С потерями
Размер потока : 460 Мбайт (5%)
Заголовок : DVO (Пётр Гланц и Инна Королёва)
Язык : Russian
Default : Нет
Forced : Нет

Аудио #4
Идентификатор : 5
Формат : AC-3
Формат/Информация : Audio Coding 3
Расширение режима : CM (complete main)
Параметр Endianness формата : Big
Идентификатор кодека : A_AC3
Продолжительность : 2 ч. 23 м.
Вид битрейта : Постоянный
Битрейт : 448 Кбит/сек
Каналы : 6 каналов
Расположение каналов : Front: L C R, Side: L R, LFE
Частота : 48,0 КГц
Битовая глубина : 16 бит
Метод сжатия : С потерями
Размер потока : 460 Мбайт (5%)
Заголовок : AVO (Юрий Сербин)
Язык : Russian
Default : Нет
Forced : Нет

Меню
00:00:00.000 : :Chapter 01
00:08:48.361 : :Chapter 02
00:14:25.656 : :Chapter 03
00:19:36.967 : :Chapter 04
00:27:52.587 : :Chapter 05
00:30:51.724 : :Chapter 06
00:35:39.762 : :Chapter 07
00:44:27.081 : :Chapter 08
00:50:00.747 : :Chapter 09
00:55:53.099 : :Chapter 10
01:01:16.673 : :Chapter 11
01:05:07.278 : :Chapter 12
01:15:23.477 : :Chapter 13
01:20:17.646 : :Chapter 14
01:30:06.567 : :Chapter 15
01:34:32.083 : :Chapter 16
01:42:55.335 : :Chapter 17
01:44:58.041 : :Chapter 18
01:53:13.495 : :Chapter 19
01:57:24.495 : :Chapter 20
01:59:28.494 : :Chapter 21
02:02:09.030 : :Chapter 22
02:08:44.717 : :Chapter 23
02:16:04.156 : :Chapter 24
02:23:11.416 : :Chapter 25

Общее
Полное имя : D:VideoVavilon.2006.BDRip.720pVavilon.2006.DUB.rus.dts
Формат : DTS
Формат/Информация : Digital Theater Systems
Размер файла : 773 Мбайт
Продолжительность : 2 ч. 23 м.
Режим общего битрейта : Постоянный
Общий поток : 755 Кбит/сек

Аудио
Формат : DTS
Формат/Информация : Digital Theater Systems
Режим : 16
Параметр Endianness формата : Big
Продолжительность : 2 ч. 23 м.
Вид битрейта : Постоянный
Битрейт : 755 Кбит/сек
Каналы : 6 каналов
Расположение каналов : Front: L C R, Side: L R, LFE
Частота : 48,0 КГц
Битовая глубина : 24 бит
Метод сжатия : С потерями
Размер потока : 773 Мбайт (100%)

Общее
Полное имя : D:VideoVavilon.2006.BDRip.720pVavilon.2006.DVO.rus.П.Гланц и И.Королёва.dts
Формат : DTS
Формат/Информация : Digital Theater Systems
Размер файла : 1,51 Гбайт
Продолжительность : 2 ч. 23 м.
Режим общего битрейта : Постоянный
Общий поток : 1509 Кбит/сек

Аудио
Формат : DTS
Формат/Информация : Digital Theater Systems
Режим : 16
Параметр Endianness формата : Big
Продолжительность : 2 ч. 23 м.
Вид битрейта : Постоянный
Битрейт : 1509 Кбит/сек
Каналы : 6 каналов
Расположение каналов : Front: L C R, Side: L R, LFE
Частота : 48,0 КГц
Битовая глубина : 16 бит
Метод сжатия : С потерями
Размер потока : 1,51 Гбайт (100%)

Общее
Полное имя : D:VideoVavilon.2006.BDRip.720pVavilon.2006.Eng.srt
Формат : SubRip
Размер файла : 68,1 Кбайт

Текст
Формат : SubRip
Метод сжатия : Без потерь

Общее
Полное имя : D:VideoVavilon.2006.BDRip.720pVavilon.2006.Original.eng.ac3
Формат : AC-3
Формат/Информация : Audio Coding 3
Размер файла : 656 Мбайт
Продолжительность : 2 ч. 23 м.
Режим общего битрейта : Постоянный
Общий поток : 640 Кбит/сек

Аудио
Формат : AC-3
Формат/Информация : Audio Coding 3
Расширение режима : CM (complete main)
Параметр Endianness формата : Big
Продолжительность : 2 ч. 23 м.
Вид битрейта : Постоянный
Битрейт : 640 Кбит/сек
Каналы : 6 каналов
Расположение каналов : Front: L C R, Side: L R, LFE
Частота : 48,0 КГц
Битовая глубина : 16 бит
Метод сжатия : С потерями
Размер потока : 656 Мбайт (100%)

Общее
Полное имя : D:VideoVavilon.2006.BDRip.720pVavilon.2006.Rus.srt
Формат : SubRip
Размер файла : 61,4 Кбайт

Текст
Формат : SubRip
Метод сжатия : Без потерь
pb.wtf



Скачать Вавилон через торрент http://i63.fastpic.ru/big/2014/1019/67/7de3374df7605b7b02dd3b98b7428c67.jpg Скачать фильм Вавилон через торрент бесплантно в хорошем качестве Описание: Действие фильма разворачивается в Марокко, Мексике и Японии, а отправной точкой сюжета становится трагедия, которую супруги ... 10 10 4
Торрент: Зарегистрирован [2014-10-19 09:01] · скачан: 48 раз
Статус: √ проверено
Размер: 13.19 GB
Как cкачать? Как скачать Вавилон через торрент | qTorrent

% Раздел Тема Автор DL S | L
Фильмы [HD 720p, 1080p] (Хороший звук DUB, MVO) [ 8.92 GB ] Вавилон / Babel [2006 BDRip 720p by msltel] DUB MVO 2 x DVO AVO msltel Скачать
2 | 0
Фильмы [HD 720p, 1080p] (Хороший звук DUB, MVO) [ 21.34 GB ] Вавилон / Babel [2006 BDRip 1080p by msltel] DUB MVO 2 x DVO AVO msltel Скачать
1 | 0

28-11-2019 20:33  

Отключить всю рекламу на сайте

    Дорогой пользователь! Огромная просьба, поблагодарите релизера, оцените раздачу и оставьте свои комментарий, если Вы скачали Вавилон через торрент бесплатно! Внесите свою лепту в развитие PiratBit!
    Комментировать посты могут только пользователи прошедшие не сложную регистрацию
    Показать сообщения:    

    Вавилон через торрент
    Скачать бесплатно Вавилон
    Вавилон скачать торрент
    Вавилон смотреть онлайн
    Cкачать фильм Вавилон бесплатно
    Вавилон скачать торрент в хорошем качестве
    Вавилон смотреть онлайн бесплатно в хорошем качестве


    Вы не можете начинать темы
    Вы не можете отвечать на сообщения
    Вы не можете редактировать свои сообщения
    Вы не можете удалять свои сообщения
    Вы не можете голосовать в опросах
    Вы не можете прикреплять файлы к сообщениям
    Вы можете скачивать файлы