Ссылка на приватное зеркало нашего сайта всего за 1$. Внимание количество ограничено!!!

2 сезон

iTunes

1 сезон

1

iTunes

iTunes

iTunes

1 сезон

RePack

30

ИГРА 18+

pack

ВАЖНО

!!Акция!!

Alien_RageХит недели

RePack

MK11
pack

Забери бонус

RePack

jed

!!Акция!!

Alien_Rage

RePack

fifa19

RePack

Assassins Creed: Odyssey

RePack

NEED FOR SPEED™ PAYBACK

4 сезон

9 сезон

Бесстыжие 9 сезон

Все сериалы

все сериалы на PB.wtf

RePack

FAR CRY 5
  

Как приручить дракона 2 / How to Train Your Dragon 2 (Дин ДеБлуа / Dean DeBlois) [2014 г., Мультфильм, фэнтези, комедия, приключения, семейный, BDRip-AVC] DUB Лицензия pb.wtf

Как приручить дракона 2 через торрент pb.wtf

Раздают: 1 [ 0 KB/s ]
Размер: 2.91 GB | Добавлен: 5 лет 10 мес. назад | Торрент скачан:1948 раз
Скачать  

19-10-2014 12:09 Как приручить дракона 2 Скачать торрент  

Как приручить дракона 2 / How to Train Your Dragon 2
Год выпуска: 2014
Страна: США / DreamWorks Animation, Mad Hatter Entertainment
Жанр: Мультфильм, фэнтези, комедия, приключения, семейный
Продолжительность: 01:41:55
Перевод: Дубляж [BD EUR]
Субтитры: Русские (полные + форс.), украинские, английские (Full + SDH)

Режиссер: Дин ДеБлуа / Dean DeBlois

В ролях: Джей Барушель, Кейт Бланшетт, Джерард Батлер, Крэйг Фергюсон, Америка Феррера, Джона Хилл, Кристофер Минц-Плассе, ТиДжей Миллер, Кристен Уиг, Джимон Хонсу

Описание: С момента примирения викингов и драконов прошло пять лет. Пока Астрид, Сморкала и остальные ребята проводят время, соревнуясь друг с другом в популярных на острове драконьих гонках, Иккинг и Беззубик путешествуют по небу, составляя карту неизвестных мест. Когда одно из их приключений приводит к открытию тайной ледяной пещеры, которая является домом для сотен ранее невиданных диких драконов и таинственного драконьего всадника, два друга оказываются в центре битвы за защиту мира.



Качество: BDRip-AVC
Формат: MKV
Видео кодек: H.264
Аудио кодек: AC3
Видео: 1092x464 (2,35:1), 23,976 fps, 3192 kbps, 0.263 bit/pixel
Аудио#1: 48 kHz, AC3 Dolby Digital, 3/2 (L,C,R,l,r) + LFE ch, 448.00 kbps | RUS
Аудио#2: 48 kHz, AC3 Dolby Digital, 3/2 (L,C,R,l,r) + LFE ch, 448.00 kbps | ENG

Релиз группы:
Автор рипа: potroks





Общее
Уникальный идентификатор : 194603802427606594628626125558632297038 (0x9267543BE13FFF3C8F462A5A99A2324E)
Полное имя : N:\Мультфильмы\Kak.Priruchit'.Drakona.2.2014.DUAL.BDRip.x264.-HELLYWOOD.mkv
Формат : Matroska
Версия формата : Version 4 / Version 2
Размер файла : 2,91 Гбайт
Продолжительность : 1 ч. 41 м.
Общий поток : 4090 Кбит/сек
Название фильма : How to Train Your Dragon 2 (2014) - HELLYWOOD
Дата кодирования : UTC 2014-10-19 09:58:27
Программа кодирования : mkvmerge v5.9.0 ('On The Loose') built on Dec 15 2012 16:39:58
Библиотека кодирования : libebml v1.3.0 + libmatroska v1.4.0

Видео
Идентификатор : 1
Формат : AVC
Формат/Информация : Advanced Video Codec
Профиль формата : High@L4.1
Параметр CABAC формата : Да
Параметр ReFrames формата : 10 кадров
Идентификатор кодека : V_MPEG4/ISO/AVC
Продолжительность : 1 ч. 41 м.
Битрейт : 3192 Кбит/сек
Ширина : 1092 пикселя
Высота : 464 пикселя
Соотношение сторон : 2,35:1
Режим частоты кадров : Постоянный
Частота кадров : 23,976 кадра/сек
Цветовое пространство : YUV
Субдискретизация насыщенности : 4:2:0
Битовая глубина : 8 бит
Тип развёртки : Прогрессивная
Бит/(Пиксели*Кадры) : 0.263
Размер потока : 2,22 Гбайт (76%)
Заголовок : potroks
Библиотека кодирования : x264 core 130 r2273 b3065e6
Настройки программы : cabac=1 / ref=10 / deblock=1:-1:-1 / analyse=0x3:0x133 / me=umh / subme=11 / psy=1 / psy_rd=1.10:0.05 / mixed_ref=1 / me_range=48 / chroma_me=1 / trellis=2 / 8x8dct=1 / cqm=0 / deadzone=21,11 / fast_pskip=0 / chroma_qp_offset=-3 / threads=9 / lookahead_threads=6 / sliced_threads=0 / nr=0 / decimate=0 / interlaced=0 / bluray_compat=0 / constrained_intra=0 / bframes=11 / b_pyramid=2 / b_adapt=2 / b_bias=0 / direct=3 / weightb=1 / open_gop=0 / weightp=2 / keyint=250 / keyint_min=23 / scenecut=40 / intra_refresh=0 / rc_lookahead=60 / rc=2pass / mbtree=0 / bitrate=3192 / ratetol=1.0 / qcomp=0.70 / qpmin=0 / qpmax=69 / qpstep=4 / cplxblur=20.0 / qblur=0.5 / vbv_maxrate=50000 / vbv_bufsize=62500 / nal_hrd=none / ip_ratio=1.35 / pb_ratio=1.25 / aq=1:0.70
Язык : English
Default : Да
Forced : Нет

Аудио #1
Идентификатор : 2
Формат : AC-3
Формат/Информация : Audio Coding 3
Расширение режима : CM (complete main)
Параметр Endianness формата : Big
Идентификатор кодека : A_AC3
Продолжительность : 1 ч. 41 м.
Вид битрейта : Постоянный
Битрейт : 448 Кбит/сек
Каналы : 6 каналов
Расположение каналов : Front: L C R, Side: L R, LFE
Частота : 48,0 КГц
Битовая глубина : 16 бит
Метод сжатия : С потерями
Размер потока : 327 Мбайт (11%)
Default : Да
Forced : Нет

Аудио #2
Идентификатор : 3
Формат : AC-3
Формат/Информация : Audio Coding 3
Расширение режима : CM (complete main)
Параметр Endianness формата : Big
Идентификатор кодека : A_AC3
Продолжительность : 1 ч. 41 м.
Вид битрейта : Постоянный
Битрейт : 448 Кбит/сек
Каналы : 6 каналов
Расположение каналов : Front: L C R, Side: L R, LFE
Частота : 48,0 КГц
Битовая глубина : 16 бит
Метод сжатия : С потерями
Размер потока : 327 Мбайт (11%)
Default : Нет
Forced : Нет

Текст #1
Идентификатор : 4
Формат : UTF-8
Идентификатор кодека : S_TEXT/UTF8
Идентификатор кодека/Информация : UTF-8 Plain Text
Заголовок : форс.
Язык : Russian
Default : Да
Forced : Да

Текст #2
Идентификатор : 5
Формат : UTF-8
Идентификатор кодека : S_TEXT/UTF8
Идентификатор кодека/Информация : UTF-8 Plain Text
Заголовок : полные
Язык : Russian
Default : Нет
Forced : Нет

Текст #3
Идентификатор : 6
Формат : UTF-8
Идентификатор кодека : S_TEXT/UTF8
Идентификатор кодека/Информация : UTF-8 Plain Text
Заголовок : полные
Язык : Ukrainian
Default : Нет
Forced : Нет

Текст #4
Идентификатор : 7
Формат : UTF-8
Идентификатор кодека : S_TEXT/UTF8
Идентификатор кодека/Информация : UTF-8 Plain Text
Заголовок : SDH
Язык : English
Default : Нет
Forced : Нет

Текст #5
Идентификатор : 8
Формат : UTF-8
Идентификатор кодека : S_TEXT/UTF8
Идентификатор кодека/Информация : UTF-8 Plain Text
Заголовок : Full
Язык : English
Default : Нет
Forced : Нет

Меню
00:00:00.000 : en:(01)00:00:00:000
00:03:27.999 : en:(02)00:03:27:999
00:05:20.695 : en:(03)00:05:20:695
00:07:46.007 : en:(04)00:07:46:007
00:10:16.032 : en:(05)00:10:16:032
00:13:16.337 : en:(06)00:13:16:337
00:16:59.059 : en:(07)00:16:59:059
00:20:01.700 : en:(08)00:20:01:700
00:23:43.255 : en:(09)00:23:43:255
00:27:14.466 : en:(10)00:27:14:466
00:29:21.468 : en:(11)00:29:21:468
00:33:41.936 : en:(12)00:33:41:936
00:37:05.473 : en:(13)00:37:05:473
00:39:06.969 : en:(14)00:39:06:969
00:40:59.165 : en:(15)00:40:59:165
00:45:03.992 : en:(16)00:45:03:992
00:47:16.625 : en:(17)00:47:16:625
00:51:51.525 : en:(18)00:51:51:525
00:54:35.730 : en:(19)00:54:35:730
00:56:15.997 : en:(20)00:56:15:997
01:00:33.171 : en:(21)01:00:33:171
01:04:28.781 : en:(22)01:04:28:781
01:06:34.949 : en:(23)01:06:34:949
01:09:44.138 : en:(24)01:09:44:138
01:14:01.854 : en:(25)01:14:01:854
01:18:35.127 : en:(26)01:18:35:127
01:21:07.153 : en:(27)01:21:07:153
01:22:55.053 : en:(28)01:22:55:053
01:24:30.065 : en:(29)01:24:30:065
01:28:04.654 : en:(30)01:28:04:654
01:31:03.499 : en:(31)01:31:03:499
01:32:21.994 : en:(32)01:32:21:994
01:41:54.858 : en:(33)01:41:54:858

pb.wtf



Скачать Как приручить дракона 2 через торрент http://pic.kartinco.top/images/7/g7c8d.jpg Скачать фильм Как приручить дракона 2 через торрент бесплантно в хорошем качестве Описание: С момента примирения викингов и драконов прошло пять лет. Пока Астрид, Сморкала и остальные ребята проводят время, соревнуясь ... 9.8 10 23
Info! Золотая раздача, скачанное не засчитывается.
Торрент: Зарегистрирован [2014-12-20 14:46] · скачан: 1 948 раз
Статус: √ проверено
Размер: 2.91 GB
Как cкачать? Как скачать Как приручить дракона 2 через торрент | qTorrent

% Раздел Тема Автор DL S | L
Ultra HD (UHD: 2K, 4K, 8K) [ 31.96 GB ] Как приручить дракона 2 / How to Train Your Dragon 2 [2014 мультфильм UHD BDRemux 2160p] DUB [] sheker187 Скачать
2 | 0
3D Мультфильмы [ 7.83 GB ] Как приручить дракона 2 / How to Train Your Dragon 2 [2014 мультфильм BDRip 1080p] DUB Half OverUnder GEKADOL Скачать
1 | 0
Иностранные мультфильмы [ 2.05 GB ] Как приручить дракона 2 / How to Train Your Dragon 2 [2014 мультфильм HDRip] DUB _KaisiK_ Скачать
3 | 0
Зарубежные Мультфильмы (BDRip 1080p, 720p, Blu-ray, BD-Remux) [ 10.33 GB ] Как приручить дракона 2 / How to Train Your Dragon 2 [2014 мультфильм BDRip 1080p] DUB GEKADOL Скачать
3 | 0
Иностранные мультфильмы [ 1.37 GB ] Как приручить дракона 2 / How to Train Your Dragon 2 [2014 мультфильм HDRip] DUB GEKADOL Скачать
7 | 0

28-11-2019 20:33  

Отключить всю рекламу на сайте

    Дорогой пользователь! Огромная просьба, поблагодарите релизера, оцените раздачу и оставьте свои комментарий, если Вы скачали Как приручить дракона 2 через торрент бесплатно! Внесите свою лепту в развитие PiratBit!
    Комментировать посты могут только пользователи прошедшие не сложную регистрацию
    Показать сообщения:    

    Как приручить дракона 2 через торрент
    Скачать бесплатно Как приручить дракона 2
    Как приручить дракона 2 скачать торрент
    Как приручить дракона 2 смотреть онлайн
    Cкачать фильм Как приручить дракона 2 бесплатно
    Как приручить дракона 2 скачать торрент в хорошем качестве
    Как приручить дракона 2 смотреть онлайн бесплатно в хорошем качестве


    Вы не можете начинать темы
    Вы не можете отвечать на сообщения
    Вы не можете редактировать свои сообщения
    Вы не можете удалять свои сообщения
    Вы не можете голосовать в опросах
    Вы не можете прикреплять файлы к сообщениям
    Вы можете скачивать файлы