Ссылка на приватное зеркало нашего сайта всего за 1$. Внимание количество ограничено!!!

2 сезон

iTunes

1 сезон

1

iTunes

iTunes

iTunes

1 сезон

RePack

30

ИГРА 18+

pack

ВАЖНО

!!Акция!!

Alien_RageХит недели

RePack

MK11
pack

Забери бонус

RePack

jed

!!Акция!!

Alien_Rage

RePack

fifa19

RePack

Assassins Creed: Odyssey

RePack

NEED FOR SPEED™ PAYBACK

4 сезон

9 сезон

Бесстыжие 9 сезон

Все сериалы

все сериалы на PB.wtf

RePack

FAR CRY 5
  

Дневник памяти / The Notebook (Ник Кассаветис) [2004, драма, мелодрама, BDRip 720p] DUB, MVO, AVO pb.wtf

Дневник памяти через торрент pb.wtf

Качают: 1 [ 0 KB/s ]
Размер: 5.57 GB | Добавлен: 6 лет назад | Торрент скачан:29 раз
Скачать  

19-10-2014 15:10 Дневник памяти Скачать торрент  

Дневник памяти / The Notebook

Год выпуска: 2004
Страна: США
Жанр: драма, мелодрама
Продолжительность: 02:03:49
Перевод: дублированный, профессиональный многоголосый, авторский
Субтитры: русские, английские (все отдельно)

Режиссёр: Ник Кассаветис

В ролях: Райан Гослинг, Рэйчел МакАдамс, Джеймс Гарнер, Джина Роулэндс, Джеймс Мэрсден, Сэм Шепард, Дэвид Торнтон, Джоан Аллен, Кевин Коннолли, Дженнифер Экхолс, Джеффри Найт, Рени Эмбер, Хезер Уолкист, Эндрю Шафф, Мэтт Шелли, Майкл Д. Фуллер, Джонатан Паркс Джордан, Лесли Фишер

Описание: Трогательная история любви, прочитанная пожилым мужчиной из старой записной книжки женщине в доме престарелых. Это история отношений юноши и девушки из разных социальных слоев, живших в Северной Каролине. Ной и Элли провели вместе незабываемое лето, пока их не разделили вначале родители, а затем Вторая мировая война. После войны все изменилось. Элли обручилась с удачливым бизнесменом, а Ной жил наедине со своими воспоминаниями в старинном доме, который ему удалось отреставрировать. Когда Элли прочла об этом в местной газете, она поняла - ей нужно найти его и решить наконец судьбу их любви…



Качество: BDRip 720p Сравнение с исходником
Формат: MKV
Видео кодек: H.264
Видео: 1280x542, 3584 kbps, 23.976 кадра/с, 0.215 bpp
Аудио 1: русский, AC3, 640 kbps, 6 ch, 48 kHz [дублированный]
Аудио 2: русский, AC3, 448 kbps, 6 ch, 48 kHz [профессиональный многоголосый]
Аудио 3: русский, AC3, 448 kbps, 6 ch, 48 kHz [авторский, Евгений Рудой]

Отдельные файлы
Аудио: русский, AC3, 192 kbps, 2 ch, 48 kHz [профессиональный многоголосый, НТВ+]
Аудио: английский, AC3, 640 kbps, 6 ch, 48 kHz [оригинал]
Аудио: английский, AC3, 192 kbps, 2 ch, 48 kHz [комментарий режиссёра]
Аудио: английский, AC3, 192 kbps, 2 ch, 48 kHz [комментарий автора романа]

Автор рипа msltel
Премия канала «MTV», 2005 год
Победитель (1):
Лучший поцелуй (Райан Гослинг, Рэйчел МакАдамс)

Номинации (1):
Лучшая женская роль (Рэйчел МакАдамс)

Премия Гильдии актеров, 2005 год
Номинации (1):
Лучшая мужская роль второго плана (Джеймс Гарнер)
frame I:1383 Avg QP:15.62 size:107457
frame P:34641 Avg QP:16.86 size: 39196
frame B:142092 Avg QP:19.69 size: 13485

Общее
Уникальный идентификатор : 240909251019962390935070609612202376000 (0xB53D6F1D5F1F9902AFA72055F508FB40)
Полное имя : D:\Video\Dnevnik pamjati.2004.BDRip.720p\Dnevnik pamjati.2004.BDRip.720p.mkv
Формат : Matroska
Версия формата : Version 4 / Version 2
Размер файла : 4,52 Гбайт
Продолжительность : 2 ч. 3 м.
Общий поток : 5224 Кбит/сек
Дата кодирования : UTC 2014-10-19 13:06:45
Программа кодирования : mkvmerge v6.9.1 ('Blue Panther') 64bit built on Apr 18 2014 18:23:38
Библиотека кодирования : libebml v1.3.0 + libmatroska v1.4.1

Видео
Идентификатор : 1
Формат : AVC
Формат/Информация : Advanced Video Codec
Профиль формата : High@L4.1
Параметр CABAC формата : Да
Параметр ReFrames формата : 9 кадров
Идентификатор кодека : V_MPEG4/ISO/AVC
Продолжительность : 2 ч. 3 м.
Битрейт : 3584 Кбит/сек
Ширина : 1280 пикселей
Высота : 542 пикселя
Соотношение сторон : 2,35:1
Режим частоты кадров : Постоянный
Частота кадров : 23,976 кадра/сек
Цветовое пространство : YUV
Субдискретизация насыщенности : 4:2:0
Битовая глубина : 8 бит
Тип развёртки : Прогрессивная
Бит/(Пиксели*Кадры) : 0.215
Размер потока : 3,10 Гбайт (69%)
Заголовок : BDRip -- STarankov
Библиотека кодирования : x264 core 142 r2431 ac76440
Настройки программы : cabac=1 / ref=9 / deblock=1:-1:-1 / analyse=0x3:0x113 / me=umh / subme=10 / psy=1 / psy_rd=1.00:0.15 / mixed_ref=1 / me_range=32 / chroma_me=1 / trellis=2 / 8x8dct=1 / cqm=0 / deadzone=21,11 / fast_pskip=1 / chroma_qp_offset=-3 / threads=6 / lookahead_threads=1 / sliced_threads=0 / nr=0 / decimate=1 / interlaced=0 / bluray_compat=0 / constrained_intra=0 / bframes=9 / b_pyramid=2 / b_adapt=2 / b_bias=0 / direct=3 / weightb=1 / open_gop=0 / weightp=2 / keyint=230 / keyint_min=23 / scenecut=40 / intra_refresh=0 / rc_lookahead=40 / rc=crf / mbtree=0 / crf=18.0 / qcomp=0.60 / qpmin=0 / qpmax=69 / qpstep=4 / vbv_maxrate=50000 / vbv_bufsize=62500 / crf_max=0.0 / nal_hrd=none / filler=0 / ip_ratio=1.40 / pb_ratio=1.30 / aq=1:1.00
Язык : English
Default : Да
Forced : Нет

Аудио #1
Идентификатор : 2
Формат : AC-3
Формат/Информация : Audio Coding 3
Расширение режима : CM (complete main)
Параметр Endianness формата : Big
Идентификатор кодека : A_AC3
Продолжительность : 2 ч. 3 м.
Вид битрейта : Постоянный
Битрейт : 640 Кбит/сек
Каналы : 6 каналов
Расположение каналов : Front: L C R, Side: L R, LFE
Частота : 48,0 КГц
Битовая глубина : 16 бит
Метод сжатия : С потерями
Размер потока : 567 Мбайт (12%)
Заголовок : DUB
Язык : Russian
Default : Да
Forced : Нет

Аудио #2
Идентификатор : 3
Формат : AC-3
Формат/Информация : Audio Coding 3
Расширение режима : CM (complete main)
Параметр Endianness формата : Big
Идентификатор кодека : A_AC3
Продолжительность : 2 ч. 3 м.
Вид битрейта : Постоянный
Битрейт : 448 Кбит/сек
Каналы : 6 каналов
Расположение каналов : Front: L C R, Side: L R, LFE
Частота : 48,0 КГц
Битовая глубина : 16 бит
Метод сжатия : С потерями
Размер потока : 397 Мбайт (9%)
Заголовок : MVO
Язык : Russian
Default : Нет
Forced : Нет

Аудио #3
Идентификатор : 4
Формат : AC-3
Формат/Информация : Audio Coding 3
Расширение режима : CM (complete main)
Параметр Endianness формата : Big
Идентификатор кодека : A_AC3
Продолжительность : 2 ч. 3 м.
Вид битрейта : Постоянный
Битрейт : 448 Кбит/сек
Каналы : 6 каналов
Расположение каналов : Front: L C R, Side: L R, LFE
Частота : 48,0 КГц
Битовая глубина : 16 бит
Метод сжатия : С потерями
Размер потока : 397 Мбайт (9%)
Заголовок : AVO (Евгений Рудой)
Язык : Russian
Default : Нет
Forced : Нет

Общее
Полное имя : D:\Video\Dnevnik pamjati.2004.BDRip.720p\Dnevnik pamjati.2004.Commentary.eng.автор романа.ac3
Формат : AC-3
Формат/Информация : Audio Coding 3
Размер файла : 170 Мбайт
Продолжительность : 2 ч. 3 м.
Режим общего битрейта : Постоянный
Общий поток : 192 Кбит/сек

Аудио
Формат : AC-3
Формат/Информация : Audio Coding 3
Профиль формата : Dolby Digital
Расширение режима : CM (complete main)
Параметр Endianness формата : Big
Продолжительность : 2 ч. 3 м.
Вид битрейта : Постоянный
Битрейт : 192 Кбит/сек
Каналы : 2 канала
Расположение каналов : Front: L R
Частота : 48,0 КГц
Битовая глубина : 16 бит
Метод сжатия : С потерями
Размер потока : 170 Мбайт (100%)

Общее
Полное имя : D:\Video\Dnevnik pamjati.2004.BDRip.720p\Dnevnik pamjati.2004.Commentary.eng.режиссёр.ac3
Формат : AC-3
Формат/Информация : Audio Coding 3
Размер файла : 170 Мбайт
Продолжительность : 2 ч. 3 м.
Режим общего битрейта : Постоянный
Общий поток : 192 Кбит/сек

Аудио
Формат : AC-3
Формат/Информация : Audio Coding 3
Профиль формата : Dolby Digital
Расширение режима : CM (complete main)
Параметр Endianness формата : Big
Продолжительность : 2 ч. 3 м.
Вид битрейта : Постоянный
Битрейт : 192 Кбит/сек
Каналы : 2 канала
Расположение каналов : Front: L R
Частота : 48,0 КГц
Битовая глубина : 16 бит
Метод сжатия : С потерями
Размер потока : 170 Мбайт (100%)

Общее
Полное имя : D:\Video\Dnevnik pamjati.2004.BDRip.720p\Dnevnik pamjati.2004.eng.srt
Формат : SubRip
Размер файла : 114 Кбайт

Текст
Формат : SubRip
Метод сжатия : Без потерь

Общее
Полное имя : D:\Video\Dnevnik pamjati.2004.BDRip.720p\Dnevnik pamjati.2004.MVO.rus.HTB+.ac3
Формат : AC-3
Формат/Информация : Audio Coding 3
Размер файла : 170 Мбайт
Продолжительность : 2 ч. 3 м.
Режим общего битрейта : Постоянный
Общий поток : 192 Кбит/сек

Аудио
Формат : AC-3
Формат/Информация : Audio Coding 3
Расширение режима : CM (complete main)
Параметр Endianness формата : Big
Продолжительность : 2 ч. 3 м.
Вид битрейта : Постоянный
Битрейт : 192 Кбит/сек
Каналы : 2 канала
Расположение каналов : Front: L R
Частота : 48,0 КГц
Битовая глубина : 16 бит
Метод сжатия : С потерями
Размер потока : 170 Мбайт (100%)

Общее
Полное имя : D:\Video\Dnevnik pamjati.2004.BDRip.720p\Dnevnik pamjati.2004.Original.eng.ac3
Формат : AC-3
Формат/Информация : Audio Coding 3
Размер файла : 567 Мбайт
Продолжительность : 2 ч. 3 м.
Режим общего битрейта : Постоянный
Общий поток : 640 Кбит/сек

Аудио
Формат : AC-3
Формат/Информация : Audio Coding 3
Расширение режима : CM (complete main)
Параметр Endianness формата : Big
Продолжительность : 2 ч. 3 м.
Вид битрейта : Постоянный
Битрейт : 640 Кбит/сек
Каналы : 6 каналов
Расположение каналов : Front: L C R, Side: L R, LFE
Частота : 48,0 КГц
Битовая глубина : 16 бит
Метод сжатия : С потерями
Размер потока : 567 Мбайт (100%)

Общее
Полное имя : D:\Video\Dnevnik pamjati.2004.BDRip.720p\Dnevnik pamjati.2004.rus.srt
Формат : SubRip
Размер файла : 118 Кбайт

Текст
Формат : SubRip
Метод сжатия : Без потерь
pb.wtf



Скачать Дневник памяти через торрент http://i68.fastpic.ru/big/2014/1019/de/229bae4253fdd78e598110c6dd26a7de.jpg Скачать фильм Дневник памяти через торрент бесплантно в хорошем качестве Описание: Трогательная история любви, прочитанная пожилым мужчиной из старой записной книжки женщине в доме престарелых. Это история ... 8.3 10 3
Торрент: Зарегистрирован [2014-10-19 15:10] · скачан: 29 раз
Статус: √ проверено
Размер: 5.57 GB
Как cкачать? Как скачать Дневник памяти через торрент | qTorrent

% Раздел Тема Автор DL S | L
Фильмы [HD 720p, 1080p] (Хороший звук DUB, MVO) [ 10.31 GB ] Дневник памяти / The Notebook [2004 BDRip 1080p] DUB MVO AVO msltel Скачать
3 | 0

28-11-2019 20:33  

Отключить всю рекламу на сайте

    Дорогой пользователь! Огромная просьба, поблагодарите релизера, оцените раздачу и оставьте свои комментарий, если Вы скачали Дневник памяти через торрент бесплатно! Внесите свою лепту в развитие PiratBit!
    Комментировать посты могут только пользователи прошедшие не сложную регистрацию
    Показать сообщения:    

    Дневник памяти через торрент
    Скачать бесплатно Дневник памяти
    Дневник памяти скачать торрент
    Дневник памяти смотреть онлайн
    Cкачать фильм Дневник памяти бесплатно
    Дневник памяти скачать торрент в хорошем качестве
    Дневник памяти смотреть онлайн бесплатно в хорошем качестве


    Вы не можете начинать темы
    Вы не можете отвечать на сообщения
    Вы не можете редактировать свои сообщения
    Вы не можете удалять свои сообщения
    Вы не можете голосовать в опросах
    Вы не можете прикреплять файлы к сообщениям
    Вы можете скачивать файлы