2 сезон

iTunes

MVO

1

2 сезон

iTunes

iTunes

1 сезон

RePack

30

Новинка

ВАЖНО

ИГРА 18+

pack

RePack

MK11
pack

Легкие деньги

RePack

jed

RePack

fifa19

RePack

RDR2

RePack

NEED FOR SPEED™ PAYBACK

4 сезон

9 сезон

Бесстыжие 9 сезон

Все сериалы

все сериалы на PB.wtf

RePack

FAR CRY 5

Anonymous, доброй ночи, мы не успеваем собрать деньги на оплату серверов за декабрь и январь, помогите нам пожалуйста в это трудное время. В качестве благодарности мы отключим Вам всю рекламу на сайте (укажите свой ник в строку Ваше имя)!

×
  
Magnet ссылка

Хоть раз в жизни / Begin again (Джон Карни) [2013 г., драма, мелодрама, комедия, музыка, BDRip, Дубляж, Лицензия] pb.wtf

Хоть раз в жизни через торрент pb.wtf

Размер: 2.06 GB | Добавлен: 6 лет 2 мес. назад | Торрент скачан:340 раз
Скачать  

19-10-2014 16:47 Хоть раз в жизни Скачать торрент  

Хоть раз в жизни / Begin again
Год выпуска: 2013
Страна: США / Exclusive Media Group, Sycamore Pictures, Apatow Productions
Жанр: драма, мелодрама, комедия, музыка
Продолжительность: 01:44:25
Перевод: Дубляж, Лицензия

Режиссер: Джон Карни

В ролях: Джеймс Корден, Кира Найтли, Марк Руффало, Хейли Стайнфелд, Мос Деф, Карен Питтман, Пол Ромеро, Кэтрин Кинер, Эндрю Селлон, Эд Реннингер

Описание: Они живут в сердце музыкального мира, в Нью-Йорке. Дэн — легенда шоу-бизнеса и бывший глава музыкального лейбла. Грета — музыкант и бывшая девушка рок-звезды. Но люди бывшими и оказываются для того, чтобы начать все сначала.

Случайная встреча с Гретой дает Дэну новый шанс. Они решают вместе записать альбом. У них нет ни денег, ни профессиональных музыкантов, но все это не важно, потому что Грета и Дэн готовы к самым неожиданным поворотам и в музыке, и в любви. Их студией становится весь Нью-Йорк.

Качество: BDRip (Рип с BD-Remux 1080p)
Формат: AVI
Видео кодек: XviD
Аудио кодек: AC3
Видео: MPEG4, XviD, 720x384 (1.875), 23.976 fps, 2 358 Kbps (0.356 bit/pixel)
Аудио: AC-3, 48.0 KHz, 6 ch, 448 Kbps, CBR

скриншот   скриншот   скриншот   скриншот   скриншот   скриншот   скриншот   скриншот  

Общее
Полное имя : G:\кино\Хоть раз в жизни.2013.BDRip.avi
Формат : AVI
Формат/Информация : Audio Video Interleave
Профиль формата : OpenDML
Размер файла : 2,06 Гбайт
Продолжительность : 1 ч. 44 м.
Общий поток : 2819 Кбит/сек
Программа кодирования : VirtualDubMod 1.5.10.3 | www.virtualdub-fr.org || (build 2550/release)
Библиотека кодирования : VirtualDubMod build 2550/release

Видео
Идентификатор : 0
Формат : MPEG-4 Visual
Профиль формата : Advanced Simple@L5
Параметр BVOP формата : 1
Параметр QPel формата : Нет
Параметр GMC формата : Без точки перехода
Параметр матрицы формата : Default (MPEG)
Идентификатор кодека : XVID
Идентификатор кодека/Подсказка : XviD
Продолжительность : 1 ч. 44 м.
Битрейт : 2358 Кбит/сек
Ширина : 720 пикселей
Высота : 384 пикселя
Соотношение сторон : 1,85:1
Частота кадров : 23,976 кадра/сек
Цветовое пространство : YUV
Субдискретизация насыщенности : 4:2:0
Битовая глубина : 8 бит
Тип развёртки : Прогрессивная
Метод сжатия : С потерями
Бит/(Пиксели*Кадры) : 0.356
Размер потока : 1,72 Гбайт (84%)
Библиотека кодирования : XviD 1.2.1 (UTC 2008-12-04)

Аудио
Идентификатор : 1
Формат : AC-3
Формат/Информация : Audio Coding 3
Расширение режима : CM (complete main)
Параметр Endianness формата : Big
Идентификатор кодека : 2000
Продолжительность : 1 ч. 44 м.
Вид битрейта : Постоянный
Битрейт : 448 Кбит/сек
Каналы : 6 каналов
Расположение каналов : Front: L C R, Side: L R, LFE
Частота : 48,0 КГц
Битовая глубина : 16 бит
Метод сжатия : С потерями
Размер потока : 335 Мбайт (16%)
Выравнивание : Разделение по промежуткам
Продолжительность промежутка : 42 мс. (1,00 видеокадр)
Время предзагрузки промежутка : 500 мс.

pb.wtf



Скачать Хоть раз в жизни через торрент http://pic.kartinco.top/images/7/t2jbt.jpg Скачать фильм Хоть раз в жизни через торрент бесплантно в хорошем качестве Описание: Они живут в сердце музыкального мира, в Нью-Йорке. Дэн — легенда шоу-бизнеса и бывший глава музыкального лейбла. Грета — музыкант ... 9 10 10
Торрент: Зарегистрирован [2014-10-19 16:47] · скачан: 340 раз
Статус: √ проверено
Размер: 2.06 GB
Как cкачать? Как скачать Хоть раз в жизни через торрент | UTorrent

% Раздел Тема Автор DL S | L
Фильмы [HD 720p, 1080p] (Хороший звук DUB, MVO) [ 4.04 GB ] Хоть раз в жизни / Begin again [2013 музыка BDRip 1080p HEVC ()] Мичман37 Скачать
1 | 0
Фильмы [HD 720p, 1080p] (Хороший звук DUB, MVO) [ 4.85 GB ] Хоть раз в жизни / Begin Again [2013 музыка BDRip 720p by msltel] DUB msltel Скачать
1 | 0
Фильмы [HD 720p, 1080p] (Хороший звук DUB, MVO) [ 13.78 GB ] Хоть раз в жизни / Begin Again [2013 музыка BDRip 1080p by msltel] DUB msltel Скачать
1 | 0
Фильмы 2013 [DVDrip, WEB-DLRip, HDrip] [ 1.37 GB ] Хоть раз в жизни / Begin again [2013 HDRip - [лицензия] MihailHD Скачать
1 | 0
Фильмы (DVD фильмы) [ 4.06 GB ] Хоть раз в жизни / Begin again [2013 музыка DVD5] R5 voovaz Скачать
1 | 0
Фильмы [HD 720p, 1080p] (Хороший звук DUB, MVO) [ 5.71 GB ] Хоть раз в жизни / Begin again [2013 музыка BDRip 720p ] кэп Скачать
1 | 0

28-11-2019 20:33  

Отключить всю рекламу на сайте

    Дорогой пользователь! Огромная просьба, поблагодарите релизера, оцените раздачу и оставьте свои комментарий, если Вы скачали Хоть раз в жизни через торрент бесплатно! Внесите свою лепту в развитие PiratBit!
    Комментировать посты могут только пользователи прошедшие не сложную регистрацию
    Показать сообщения:    

    Хоть раз в жизни через торрент
    Скачать бесплатно Хоть раз в жизни
    Хоть раз в жизни скачать торрент
    Хоть раз в жизни смотреть онлайн
    Cкачать фильм Хоть раз в жизни бесплатно
    Хоть раз в жизни скачать торрент в хорошем качестве
    Хоть раз в жизни смотреть онлайн бесплатно в хорошем качестве


    Вы не можете начинать темы
    Вы не можете отвечать на сообщения
    Вы не можете редактировать свои сообщения
    Вы не можете удалять свои сообщения
    Вы не можете голосовать в опросах
    Вы не можете прикреплять файлы к сообщениям
    Вы можете скачивать файлы