Ссылка на приватное зеркало всего за 1$. Внимание количество ограничено!!!

iTunes

iTunes

iTunes

1

iTunes

iTunes

iTunes

iTunes

iTunes

30
pack

$ от Little Big

ВАЖНО

!!Акция!!

Alien_RageХит недели

RePack

Resident Evil 21

ИГРА 18+

pack

RePack

jed

!!Акция!!

Alien_Rage

RePack

fifa19

RePack

Assassins Creed: Odyssey

RePack

NEED FOR SPEED™ PAYBACK

4 сезон

9 сезон

Бесстыжие 9 сезон

Все сериалы

все сериалы на PB.wtf

RePack

FAR CRY 5
  

Снайпер: Наследие / Sniper: Legacy (Дон Майкл Пол) [2014 г., боевик, триллер, WEB-DL 720p, Профессиональный многоголосый] iTunes Russia pb.wtf

Снайпер: Наследие через торрент pb.wtf

Размер: 3.35 GB | Добавлен: 5 лет 8 мес. назад | Торрент скачан:344 раза
Скачать  

19-10-2014 21:12 Снайпер: Наследие Скачать торрент  

Снайпер: Наследие / Sniper: Legacy
Год выпуска: 2014
Страна: США
Жанр: боевик, триллер
Продолжительность: 01:37:59
Перевод: Профессиональный многоголосый iTunes Russia
Субтитры: English (Forced, iTunes), English (iTunes)

Режиссер: Дон Майкл Пол
Продюссер: Джеффри Бич, Филлип Дж. Рот, Чериз Хони
Сценарий: Джон Фазано, Дон Майкл Пол
Премьера в мире: 29 сентября 2014

IMDB 5.10 (266)


В ролях: Том Беренджер, Чад Коллинз, Деннис Хейсбёрт, Даг Аллен, Асен Асенов, Василь Энев, Данко Йорданов, Доминик Мафэм, Мерседес Масон, Вун Янг Парк

Описание: Брендону сообщают, что дезертировавший американский снайпер убил его отца. Собрав небольшой отряд, он решает выследить убийцу. В процессе поисков он узнает, что его отец не умер, после чего Брендон начинает понимать, что старшие офицеры использовали его в качестве приманки...

Качество: WEB-DL 720p
Формат: MKV
Видео кодек: AVC
Аудио кодек: AC3
Видео: 1280x720 at 23.976 fps, MPEG-4 AVC, ~4000 kbps avg
Аудио#1: Russian: 48 kHz, AC3, 3/2 (L,C,R,l,r) + LFE ch, ~384.00 kbps avg |Многоголосый закадровый, iTunes Russia|
Аудио#2: English: 48 kHz, AC3, 3/2 (L,C,R,l,r) + LFE ch, ~384.00 kbps avg |iTunes US|
General
Unique ID : 236960190128794703984269417214879470715 (0xB244DF6161AA4E17A18BF2062904147B)
Complete name : /home/sb1855/files/Sniper.Legacy.2014.720p.WEB-DL.Rus.Eng.HDCLUB.mkv
Format : Matroska
Format version : Version 2
File size : 3.35 GiB
Duration : 1h 37mn
Overall bit rate : 4 900 Kbps
Movie name : Sniper: Legacy (2014) - Release for HDCLUB
Encoded date : UTC 2014-10-19 12:48:45
Writing application : mkvmerge v3.4.0 ('Rapunzel') built on May 15 2010 09:38:20
Writing library : libebml v0.8.0 + libmatroska v0.9.0

Video
ID : 1
Format : AVC
Format/Info : Advanced Video Codec
Format profile : High@L3.1
Format settings, CABAC : No
Format settings, ReFrames : 2 frames
Codec ID : V_MPEG4/ISO/AVC
Duration : 1h 37mn
Bit rate : 4 035 Kbps
Width : 1 280 pixels
Height : 720 pixels
Display aspect ratio : 16:9
Frame rate : 23.976 fps
Color space : YUV
Chroma subsampling : 4:2:0
Bit depth : 8 bits
Scan type : Progressive
Bits/(Pixel*Frame) : 0.183
Stream size : 2.76 GiB (82%)
Title : Sniper: Legacy (2014) - Release for HDCLUB
Language : English
Default : Yes
Forced : No
Color primaries : BT.709-5, BT.1361, IEC 61966-2-4, SMPTE RP177
Transfer characteristics : BT.709-5, BT.1361
Matrix coefficients : BT.709-5, BT.1361, IEC 61966-2-4 709, SMPTE RP177

Audio #1
ID : 2
Format : AC-3
Format/Info : Audio Coding 3
Mode extension : CM (complete main)
Format settings, Endianness : Big
Codec ID : A_AC3
Duration : 1h 37mn
Bit rate mode : Constant
Bit rate : 384 Kbps
Channel(s) : 6 channels
Channel positions : Front: L C R, Side: L R, LFE
Sampling rate : 48.0 KHz
Bit depth : 16 bits
Compression mode : Lossy
Stream size : 269 MiB (8%)
Title : AC3 5.1 @ 384 kbps - MVO, iTunes
Language : Russian
Default : Yes
Forced : No

Audio #2
ID : 3
Format : AC-3
Format/Info : Audio Coding 3
Mode extension : CM (complete main)
Format settings, Endianness : Big
Codec ID : A_AC3
Duration : 1h 37mn
Bit rate mode : Constant
Bit rate : 384 Kbps
Channel(s) : 6 channels
Channel positions : Front: L C R, Side: L R, LFE
Sampling rate : 48.0 KHz
Bit depth : 16 bits
Compression mode : Lossy
Stream size : 269 MiB (8%)
Title : AC3 5.1 @ 384 kbps
Language : English
Default : No
Forced : No

Text #1
ID : 4
Format : UTF-8
Codec ID : S_TEXT/UTF8
Codec ID/Info : UTF-8 Plain Text
Language : English
Default : No
Forced : No

Text #2
ID : 5
Format : UTF-8
Codec ID : S_TEXT/UTF8
Codec ID/Info : UTF-8 Plain Text
Language : English
Default : No
Forced : No

Menu
00:00:00.000 : en:1
00:06:44.000 : en:2
00:14:21.000 : en:3
00:18:00.000 : en:4
00:22:33.000 : en:5
00:29:32.000 : en:6
00:33:20.000 : en:7
00:37:35.000 : en:8
00:43:45.000 : en:9
00:50:34.000 : en:10
00:58:17.000 : en:11
01:05:11.000 : en:12
01:11:28.000 : en:13
01:17:11.000 : en:14
01:21:13.000 : en:15
01:32:36.000 : en:16

pb.wtf



Скачать Снайпер: Наследие через торрент http://i68.fastpic.ru/big/2014/1020/0b/97ed9d5fca99bc9a430f69fab70bc70b.png Скачать фильм Снайпер: Наследие через торрент бесплантно в хорошем качестве Описание: Брендону сообщают, что дезертировавший американский снайпер убил его отца. Собрав небольшой отряд, он решает выследить убийцу. В ... 9.9 10 16
Торрент: Зарегистрирован [2014-10-19 21:12] · скачан: 344 раз
Статус: √ проверено
Размер: 3.35 GB
Как cкачать? Как скачать Снайпер: Наследие через торрент | qTorrent

28-11-2019 20:33  

Отключить всю рекламу на сайте

28-10-2014 22:34 Снайпер: Наследие Скачать торрент  

no no no no no no no no no no no no no no no
Такое унылое еще поискать нужно.... как на такое деньги выделяют....pb.wtf



    Дорогой пользователь! Огромная просьба, поблагодарите релизера, оцените раздачу и оставьте свои комментарий, если Вы скачали Снайпер: Наследие через торрент бесплатно! Внесите свою лепту в развитие PiratBit!
    Комментировать посты могут только пользователи прошедшие не сложную регистрацию
    Показать сообщения:    

    Снайпер: Наследие через торрент
    Скачать бесплатно Снайпер: Наследие
    Снайпер: Наследие скачать торрент
    Снайпер: Наследие смотреть онлайн
    Cкачать фильм Снайпер: Наследие бесплатно
    Снайпер: Наследие скачать торрент в хорошем качестве
    Снайпер: Наследие смотреть онлайн бесплатно в хорошем качестве


    Вы не можете начинать темы
    Вы не можете отвечать на сообщения
    Вы не можете редактировать свои сообщения
    Вы не можете удалять свои сообщения
    Вы не можете голосовать в опросах
    Вы не можете прикреплять файлы к сообщениям
    Вы можете скачивать файлы