Ссылка на приватное зеркало нашего сайта всего за 1$. Внимание количество ограничено!!!

2 сезон

iTunes

1 сезон

1

iTunes

iTunes

iTunes

1 сезон

RePack

30

ИГРА 18+

pack

ВАЖНО

!!Акция!!

Alien_RageХит недели

RePack

MK11
pack

Забери бонус

RePack

jed

!!Акция!!

Alien_Rage

RePack

fifa19

RePack

Assassins Creed: Odyssey

RePack

NEED FOR SPEED™ PAYBACK

4 сезон

9 сезон

Бесстыжие 9 сезон

Все сериалы

все сериалы на PB.wtf

RePack

FAR CRY 5
  

Дом / Home (Урсула Майер) [2008 г., драма, BDRip 720p, Профессиональный многоголосый] pb.wtf

Дом через торрент pb.wtf

Размер: 6.89 GB | Добавлен: 6 лет назад | Торрент скачан:7 раз
Скачать  

20-10-2014 10:46 Дом Скачать торрент  

Дом / Home
Год выпуска: 2008
Страна: Швейцария, Франция, Бельгия
Жанр: драма
Продолжительность: 01:37:42
Перевод: Профессиональный многоголосый
Субтитры: Russian (R5), Russian, English

Режиссер: Урсула Майер
Продюссер: Дени Делькамп, Дэнис Фрейд, Тьерри Спише
Сценарий: Урсула Майер, Антуан Жаккуд, Рафаэль Вальбруне
Премьера в мире: 18 мая 2008

IMDB 6.90 (2561)


В ролях: Изабель Юппер, Оливье Гурме, Аделаид Леру, Мадлен Бадд, Кейси Моттет Кляйн, Рено Ривие, Килиан Торрент, Николас Дель Сордо, Хьюго Сейнт-Джеймс, Вирджил Берсе

Описание: Марта и Мишель вместе с тремя детьми живут рядом с недостроенным шоссе. Для их семьи эта давным-давно забытая властями трасса — обжитое место для повседневных хлопот и игр. Но когда магистраль достраивают, нескончаемый поток машин нарушает привычную и налаженную жизнь семьи. Сталкиваясь с неожиданными трудностями, герои постепенно осознают, что любовь и взаимопонимание превыше всего.

Доп. информация: Сохранены оригинальные чаптеры как на Blu-ray.

Качество: BDRip 720p
Формат: MKV
Видео кодек: AVC
Аудио кодек: AC3 / DTS
Видео: AVC, 1280x694 (16:9), 23.976 fps, 8 200 Kbps (0.385 bit/pixel)
Аудио#1: Russian: 48 kHz, AC3, 2/0 (L,R) ch, ~192.00 kbps avg |Многоголосый закадровый, R5|
Аудио#2: Russian: 48 kHz, AC3, 2/0 (L,R) ch, ~192.00 kbps avg |Многоголосый закадровый, ГТРК "Культура"|
Аудио#3: French: 48 kHz/24-bit, DTS, 3/2 (L,C,R,l,r) + LFE ch, ~1509.00 kbps avg
General
Unique ID : 212401310839299315985814539275308040291 (0x9FCB01256BCDA519920AAD9AA1FB0063)
Complete name : /home/sb1855/files/Home.2008.720p.BluRay.2xRus.Fre.HDCLUB.mkv
Format : Matroska
Format version : Version 2
File size : 6.89 GiB
Duration : 1h 37mn
Overall bit rate : 10.1 Mbps
Movie name : Home (2008) - Release for HDCLUB
Encoded date : UTC 2014-10-19 20:15:43
Writing application : mkvmerge v5.7.0 ('The Whirlwind') built on Jul 8 2012 20:08:51
Writing library : libebml v1.2.3 + libmatroska v1.3.0

Video
ID : 1
Format : AVC
Format/Info : Advanced Video Codec
Format profile : High@L4.1
Format settings, CABAC : Yes
Format settings, ReFrames : 9 frames
Codec ID : V_MPEG4/ISO/AVC
Duration : 1h 37mn
Bit rate : 8 200 Kbps
Width : 1 280 pixels
Height : 694 pixels
Display aspect ratio : 1.85:1
Frame rate : 23.976 fps
Color space : YUV
Chroma subsampling : 4:2:0
Bit depth : 8 bits
Scan type : Progressive
Bits/(Pixel*Frame) : 0.385
Stream size : 5.46 GiB (79%)
Writing library : x264 core 142 r2431+42 c69a006 tMod [8-bit@all X86_64]
Encoding settings : cabac=1 / ref=9 / deblock=1:-3:-3 / analyse=0x3:0x133 / me=umh / subme=10 / psy=1 / fade_compensate=0.00 / psy_rd=1.08:0.00 / mixed_ref=1 / me_range=24 / chroma_me=1 / trellis=2 / 8x8dct=1 / cqm=0 / deadzone=21,11 / fast_pskip=1 / chroma_qp_offset=-2 / threads=6 / lookahead_threads=1 / sliced_threads=0 / nr=0 / decimate=1 / interlaced=0 / bluray_compat=0 / constrained_intra=0 / fgo=0 / bframes=11 / b_pyramid=2 / b_adapt=2 / b_bias=0 / direct=3 / weightb=1 / open_gop=0 / weightp=2 / keyint=250 / keyint_min=23 / scenecut=40 / intra_refresh=0 / rc=2pass / mbtree=0 / bitrate=8200 / ratetol=1.0 / qcomp=0.65 / qpmin=0:0:0 / qpmax=69:69:69 / qpstep=4 / cplxblur=20.0 / qblur=0.5 / ip_ratio=1.30 / pb_ratio=1.20 / aq=4:0.68 / aq-sensitivity=10.00 / aq-factor=1.00:1.00:1.00 / aq2=0 / aq3=0
Language : English
Default : Yes
Forced : No
Matrix coefficients : BT.709-5, BT.1361, IEC 61966-2-4 709, SMPTE RP177

Audio #1
ID : 2
Format : AC-3
Format/Info : Audio Coding 3
Mode extension : CM (complete main)
Format settings, Endianness : Big
Codec ID : A_AC3
Duration : 1h 37mn
Bit rate mode : Constant
Bit rate : 192 Kbps
Channel(s) : 2 channels
Channel positions : Front: L R
Sampling rate : 48.0 KHz
Bit depth : 16 bits
Compression mode : Lossy
Stream size : 134 MiB (2%)
Title : |???????????? ??????????, R5|
Language : Russian
Default : Yes
Forced : No

Audio #2
ID : 3
Format : AC-3
Format/Info : Audio Coding 3
Mode extension : CM (complete main)
Format settings, Endianness : Big
Codec ID : A_AC3
Duration : 1h 37mn
Bit rate mode : Constant
Bit rate : 192 Kbps
Channel(s) : 2 channels
Channel positions : Front: L R
Sampling rate : 48.0 KHz
Bit depth : 16 bits
Compression mode : Lossy
Stream size : 134 MiB (2%)
Title : |???????????? ??????????, ???? "????????"|
Language : Russian
Default : No
Forced : No

Audio #3
ID : 4
Format : DTS
Format/Info : Digital Theater Systems
Codec ID : A_DTS
Duration : 1h 37mn
Bit rate mode : Constant
Bit rate : 1 510 Kbps
Channel(s) : 6 channels
Channel positions : Front: L C R, Side: L R, LFE
Sampling rate : 48.0 KHz
Bit depth : 24 bits
Compression mode : Lossy
Stream size : 1.03 GiB (15%)
Language : French
Default : No
Forced : No

Text #1
ID : 5
Format : UTF-8
Codec ID : S_TEXT/UTF8
Codec ID/Info : UTF-8 Plain Text
Title : R5
Language : Russian
Default : No
Forced : No

Text #2
ID : 6
Format : UTF-8
Codec ID : S_TEXT/UTF8
Codec ID/Info : UTF-8 Plain Text
Title : deadman
Language : Russian
Default : No
Forced : No

Text #3
ID : 7
Format : UTF-8
Codec ID : S_TEXT/UTF8
Codec ID/Info : UTF-8 Plain Text
Language : English
Default : No
Forced : No

Menu
00:00:00.000 : en:00:00:00.000
00:08:43.147 : en:00:08:43.147
00:16:43.376 : en:00:16:43.376
00:23:47.843 : en:00:23:47.843
00:31:58.124 : en:00:31:58.124
00:40:00.773 : en:00:40:00.773
00:47:22.463 : en:00:47:22.463
00:57:18.726 : en:00:57:18.726
01:04:32.617 : en:01:04:32.617
01:12:00.690 : en:01:12:00.690
01:20:47.634 : en:01:20:47.634
01:27:32.287 : en:01:27:32.287

pb.wtf



Скачать Дом через торрент http://i68.fastpic.ru/big/2014/1020/4a/3aa32c2eece04f14da15b3b1bb3bdf4a.png Скачать фильм Дом через торрент бесплантно в хорошем качестве Описание: Марта и Мишель вместе с тремя детьми живут рядом с недостроенным шоссе. Для их семьи эта давным-давно забытая властями трасса — ... 8 10 3
Торрент: Зарегистрирован [2014-10-20 10:46] · скачан: 7 раз
Статус: √ проверено
Размер: 6.89 GB
Как cкачать? Как скачать Дом через торрент | qTorrent

% Раздел Тема Автор DL S | L
Фильмы [HD 720p, 1080p] (Хороший звук DUB, MVO) [ 16.94 GB ] Один дома / Home Alone [19901992 г BDRip 720p лицензия] Ke$h@ Скачать
1 | 0
Фильмы до 2000 г. [ 4.44 GB ] Один Дома / Home Alone [1990 HDRip] [Все переводы] killermax2013 Скачать
1 | 0
Научно-популярные фильмы [ 4.37 GB ] Дом - Свидание с планетой / HOME [2009 Документальный BDRip 1080p] DEVI Скачать
1 | 0
HD ролики [ 1.88 GB ] Real Teen Amateurs Clips / Подростковое домашнее порно [2008 Homevideo Amateur All sex] DEVI Скачать
1 | 0
Фильмы до 2000 г. [ 1.37 GB ] Один дома / Home Alone [1990 DVDRip] DEVI Скачать
1 | 0
Русское любительское видео [ 71 MB ] Домашнее видео / Home sex [2013 Home Classic Pov. CamRip] Pir@tya2010 Скачать
1 | 0
Фильмы 2010 [ 1.37 GB ] Братство танца: Возвращение домой / Stomp the Yard 2: Homecoming [2010 DVDRip] [ лицензия ] MIO2008 Скачать
1 | 0

28-11-2019 20:33  

Отключить всю рекламу на сайте

    Дорогой пользователь! Огромная просьба, поблагодарите релизера, оцените раздачу и оставьте свои комментарий, если Вы скачали Дом через торрент бесплатно! Внесите свою лепту в развитие PiratBit!
    Комментировать посты могут только пользователи прошедшие не сложную регистрацию
    Показать сообщения:    

    Дом через торрент
    Скачать бесплатно Дом
    Дом скачать торрент
    Дом смотреть онлайн
    Cкачать фильм Дом бесплатно
    Дом скачать торрент в хорошем качестве
    Дом смотреть онлайн бесплатно в хорошем качестве


    Вы не можете начинать темы
    Вы не можете отвечать на сообщения
    Вы не можете редактировать свои сообщения
    Вы не можете удалять свои сообщения
    Вы не можете голосовать в опросах
    Вы не можете прикреплять файлы к сообщениям
    Вы можете скачивать файлы