2 сезон

iTunes

MVO

1

2 сезон

iTunes

iTunes

1 сезон

RePack

30

Ultimate

ВАЖНО

ИГРА 18+

pack

RePack

MK11
pack

Легкие деньги

RePack

jed

RePack

fifa19

RePack

RDR2

RePack

NEED FOR SPEED™ PAYBACK

4 сезон

9 сезон

Бесстыжие 9 сезон

Все сериалы

все сериалы на PB.wtf

RePack

FAR CRY 5

Anonymous, добрый вечер, мы не успеваем собрать деньги на оплату серверов за декабрь и январь, помогите нам пожалуйста в это трудное время. В качестве благодарности мы отключим Вам всю рекламу на сайте (укажите свой ник в строку Ваше имя)!

×
  
Magnet ссылка

Могильный Хэллоуин / Grave Halloween (Стивен Р. Монро) [2013 г., Ужасы, WEB-DLRip, Профессиональный многоголосый] pb.wtf

Могильный Хэллоуин через торрент pb.wtf

Размер: 1.46 GB | Добавлен: 6 лет 2 мес. назад | Торрент скачан:548 раз
Скачать  

20-10-2014 15:05 Могильный Хэллоуин Скачать торрент  

Могильный Хэллоуин / Grave Halloween
Год выпуска: 2013
Страна: Канада, Haunted Pictures
Жанр: Ужасы
Продолжительность: 01:29:28
Перевод: Профессиональный многоголосый
Субтитры: Отсутствуют

Режиссер: Стивен Р. Монро
Продюссер: Том Берри, Лиза М. Хансен
Сценарий: Райан В. Смит

Премьера в мире: 19 октября 2013

MPAA: R- лицам до 17 лет обязательно присутствие взрослого-
IMDb: 4.30 (205)
Кинопоиск: 4.333 44

В ролях: Кейтлин Вонг, Касси Томсон, Деян Лойола, Грэхэм Уордл, Джесси Вилер, Том Стивенс, Джеффри Баллард, Хиро Канагава, Кеван Охтци

Описание: Группа подростков отправилась в Лес Смерти. Вскоре им приходится пожалеть о том, что они пришли в это место…

Качество: WEB-DLRip
Формат: AVI
Видео кодек: XviD
Аудио кодек: AC3
Видео: 720x400 (1.80:1), 23.976 fps, XviD build 50 ~1940 kbps avg, 0.28 bit/pixel
Аудио#1: 48 kHz, AC3 Dolby Digital, 3/2 (L,C,R,l,r) + LFE ch, ~384 kbps











Общее
Полное имя : D:\torrent\Mogiljnyj helloyin 2013 WEB-DLRip.avi
Формат : AVI
Формат/Информация : Audio Video Interleave
Размер файла : 1,46 Гбайт
Продолжительность : 1 ч. 29 м.
Общий поток : 2334 Кбит/сек
Программа кодирования : VirtualDubMod 1.5.10.3 | www.virtualdub-fr.org || (build 2550/release)
Библиотека кодирования : VirtualDubMod build 2550/release

Видео
Идентификатор : 0
Формат : MPEG-4 Visual
Профиль формата : Advanced Simple@L5
Параметр BVOP формата : 2
Параметр QPel формата : Нет
Параметр GMC формата : Без точки перехода
Параметр матрицы формата : Default (MPEG)
Идентификатор кодека : XVID
Идентификатор кодека/Подсказка : XviD
Продолжительность : 1 ч. 29 м.
Битрейт : 1941 Кбит/сек
Ширина : 720 пикселей
Высота : 400 пикселей
Соотношение сторон : 16:9
Частота кадров : 23,976 кадра/сек
Цветовое пространство : YUV
Субдискретизация насыщенности : 4:2:0
Битовая глубина : 8 бит
Тип развёртки : Прогрессивная
Метод сжатия : С потерями
Бит/(Пиксели*Кадры) : 0.281
Размер потока : 1,21 Гбайт (83%)
Библиотека кодирования : XviD 1.2.1 (UTC 2008-12-04)

Аудио
Идентификатор : 1
Формат : AC-3
Формат/Информация : Audio Coding 3
Расширение режима : CM (complete main)
Параметр Endianness формата : Big
Идентификатор кодека : 2000
Продолжительность : 1 ч. 29 м.
Вид битрейта : Постоянный
Битрейт : 384 Кбит/сек
Каналы : 6 каналов
Расположение каналов : Front: L C R, Side: L R, LFE
Частота : 48,0 КГц
Битовая глубина : 16 бит
Метод сжатия : С потерями
Размер потока : 246 Мбайт (16%)
Выравнивание : Разделение по промежуткам
Продолжительность промежутка : 42 мс. (1,00 видеокадр)
Время предзагрузки промежутка : 500 мс.

pb.wtf



Скачать Могильный Хэллоуин через торрент http://pic.kartinco.top/images/7/ggdci.jpg Скачать фильм Могильный Хэллоуин через торрент бесплантно в хорошем качестве Описание: Группа подростков отправилась в Лес Смерти. Вскоре им приходится пожалеть о том, что они пришли в это ... 8.1 10 25
Торрент: Зарегистрирован [2014-10-20 15:05] · скачан: 548 раз
Статус: √ проверено
Размер: 1.46 GB
Как cкачать? Как скачать Могильный Хэллоуин через торрент | UTorrent

28-11-2019 20:33  

Отключить всю рекламу на сайте

20-10-2014 17:48 Могильный Хэллоуин Скачать торрент  

такие фильмы отбивают желание отдыхать в лесуpb.wtf



21-10-2014 01:58 Могильный Хэллоуин Скачать торрент  

извени конечно, но посмотри, Ходячие мертвецы, сам все поймешь....pb.wtf



    Дорогой пользователь! Огромная просьба, поблагодарите релизера, оцените раздачу и оставьте свои комментарий, если Вы скачали Могильный Хэллоуин через торрент бесплатно! Внесите свою лепту в развитие PiratBit!
    Комментировать посты могут только пользователи прошедшие не сложную регистрацию
    Показать сообщения:    

    Могильный Хэллоуин через торрент
    Скачать бесплатно Могильный Хэллоуин
    Могильный Хэллоуин скачать торрент
    Могильный Хэллоуин смотреть онлайн
    Cкачать фильм Могильный Хэллоуин бесплатно
    Могильный Хэллоуин скачать торрент в хорошем качестве
    Могильный Хэллоуин смотреть онлайн бесплатно в хорошем качестве


    Вы не можете начинать темы
    Вы не можете отвечать на сообщения
    Вы не можете редактировать свои сообщения
    Вы не можете удалять свои сообщения
    Вы не можете голосовать в опросах
    Вы не можете прикреплять файлы к сообщениям
    Вы можете скачивать файлы