2 сезон

iTunes

MVO

1

2 сезон

iTunes

iTunes

1 сезон

RePack

30

Ultimate

ВАЖНО

ИГРА 18+

pack

RePack

MK11
pack

Легкие деньги

RePack

jed

RePack

fifa19

RePack

RDR2

RePack

NEED FOR SPEED™ PAYBACK

4 сезон

9 сезон

Бесстыжие 9 сезон

Все сериалы

все сериалы на PB.wtf

RePack

FAR CRY 5

Anonymous, доброй ночи, мы не успеваем собрать деньги на оплату серверов за декабрь и январь, помогите нам пожалуйста в это трудное время. В качестве благодарности мы отключим Вам всю рекламу на сайте (укажите свой ник в строку Ваше имя)!

×
  
Magnet ссылка

Мечты сбываются! / One Chance (Дэвид Фрэнкел) [2013 г., драма, комедия, мелодрама, биография, HDRip, Профессиональный многоголосый] pb.wtf

Мечты сбываются! через торрент pb.wtf

Размер: 1.46 GB | Добавлен: 6 лет 2 мес. назад | Торрент скачан:341 раз
Скачать  

20-10-2014 15:42 Мечты сбываются! Скачать торрент  

Мечты сбываются! / One Chance
Год выпуска: 2013
Страна: Великобритания, США
Жанр: драма, комедия, мелодрама, биография
Продолжительность: 01:43:50
Перевод: Профессиональный многоголосый

Режиссер: Дэвид Фрэнкел
Продюссер: Саймон Коуэлл, Майкл Менчел, Крис Тикье
Сценарий: Джастин Закэм
Премьера в мире: 9 сентября 2013

IMDB 6.70 (3924)


В ролях: Джеймс Корден, Джули Уолтерс, Александра Роуч, Колм Мини, Макензи Крук, Валерия Билелло, Тристан Гравель, Сион Тудор Оуэн, Джемайма Рупер, Александр Макквин, Сергей Чихачев

Описание: У каждого в жизни была минута славы. Или обязательно будет. Даже если тебе уже тридцать семь, от природы ты не красавец, работаешь в заштатном магазине сотовых телефонов, живешь на чердаке у родителей, а хочется тебе лишь одного — петь на оперной сцене.

Качество: HDRip
Формат: AVI
Видео кодек: XviD
Аудио кодек: AC3
Видео: XviD, 1819 Кбит/с, 720x304, 23.976 fps
Аудио: Русский: AC3, 2 ch, 128 Кбит/с, 48.0 KHz

General
Complete name : /home/sb1855/files/Me4ty.sbyvautsya.2013.P.HDRip.avi
Format : AVI
Format/Info : Audio Video Interleave
File size : 1.46 GiB
Duration : 1h 43mn
Overall bit rate : 2 021 Kbps
Writing application : VirtualDubMod 1.5.10.2 (build 2540/release)
Writing library : VirtualDubMod build 2540/release

Video
ID : 0
Format : MPEG-4 Visual
Format profile : Advanced Simple@L5
Format settings, BVOP : 2
Format settings, QPel : No
Format settings, GMC : No warppoints
Format settings, Matrix : Default (MPEG)
Codec ID : XVID
Codec ID/Hint : XviD
Duration : 1h 43mn
Bit rate : 1 820 Kbps
Width : 720 pixels
Height : 304 pixels
Display aspect ratio : 2.35:1
Frame rate : 23.976 fps
Color space : YUV
Chroma subsampling : 4:2:0
Bit depth : 8 bits
Scan type : Progressive
Compression mode : Lossy
Bits/(Pixel*Frame) : 0.347
Stream size : 1.31 GiB (90%)
Writing library : XviD 1.2.1 (UTC 2008-12-04)

Audio
ID : 1
Format : AC-3
Format/Info : Audio Coding 3
Mode extension : CM (complete main)
Format settings, Endianness : Big
Codec ID : 2000
Duration : 1h 43mn
Bit rate mode : Constant
Bit rate : 192 Kbps
Channel(s) : 2 channels
Channel positions : Front: L R
Sampling rate : 48.0 KHz
Bit depth : 16 bits
Compression mode : Lossy
Stream size : 142 MiB (9%)
Alignment : Split accross interleaves
Interleave, duration : 42 ms (1.00 video frame)
Interleave, preload duration : 500 ms

pb.wtf



Скачать Мечты сбываются! через торрент http://i68.fastpic.ru/big/2014/1020/88/79c086a3c97f56fc8b45664ad2ee6088.png Скачать фильм Мечты сбываются! через торрент бесплантно в хорошем качестве Описание: У каждого в жизни была минута славы. Или обязательно будет. Даже если тебе уже тридцать семь, от природы ты не красавец, ... 9.4 10 14
Info! Золотая раздача, скачанное не засчитывается.
Торрент: Зарегистрирован [2014-10-20 15:42] · скачан: 341 раз
Статус: √ проверено
Размер: 1.46 GB
Как cкачать? Как скачать Мечты сбываются! через торрент | UTorrent

% Раздел Тема Автор DL S | L
Фильмы [HD 720p, 1080p] (Хороший звук DUB, MVO) [ 4.73 GB ] Мечты сбываются! / One Chance [2013 биография BDRip 720p многоголосый] кэп Скачать
1 | 0
Фильмы 2013 [DVDrip, WEB-DLRip, HDrip] [ 1.46 GB ] Мечты сбываются! / One Chance [2013 биография HDRip Профессиональное многоголосое ] Drakosha Скачать
1 | 0

28-11-2019 20:33  

Отключить всю рекламу на сайте

20-10-2014 16:12 Мечты сбываются! Скачать торрент  

Спасибоpb.wtf



22-10-2014 15:32 Мечты сбываются! Скачать торрент  

отличный фильм,заставил переживать и смахивать слезы с лицаpb.wtf



    Дорогой пользователь! Огромная просьба, поблагодарите релизера, оцените раздачу и оставьте свои комментарий, если Вы скачали Мечты сбываются! через торрент бесплатно! Внесите свою лепту в развитие PiratBit!
    Комментировать посты могут только пользователи прошедшие не сложную регистрацию
    Показать сообщения:    

    Мечты сбываются! через торрент
    Скачать бесплатно Мечты сбываются!
    Мечты сбываются! скачать торрент
    Мечты сбываются! смотреть онлайн
    Cкачать фильм Мечты сбываются! бесплатно
    Мечты сбываются! скачать торрент в хорошем качестве
    Мечты сбываются! смотреть онлайн бесплатно в хорошем качестве


    Вы не можете начинать темы
    Вы не можете отвечать на сообщения
    Вы не можете редактировать свои сообщения
    Вы не можете удалять свои сообщения
    Вы не можете голосовать в опросах
    Вы не можете прикреплять файлы к сообщениям
    Вы можете скачивать файлы