Ссылка на приватное зеркало нашего сайта всего за 1$. Внимание количество ограничено!!!

2 сезон

iTunes

1 сезон

1

iTunes

iTunes

iTunes

1 сезон

RePack

30

ИГРА 18+

pack

ВАЖНО

!!Акция!!

Alien_RageХит недели

RePack

MK11
pack

Забери бонус

RePack

jed

!!Акция!!

Alien_Rage

RePack

fifa19

RePack

Assassins Creed: Odyssey

RePack

NEED FOR SPEED™ PAYBACK

4 сезон

9 сезон

Бесстыжие 9 сезон

Все сериалы

все сериалы на PB.wtf

RePack

FAR CRY 5
  

Мечты сбываются! / One Chance (Дэвид Фрэнкел) [2013 г., драма, комедия, мелодрама, биография, BDRip 720p, Профессиональный многоголосый] pb.wtf

Мечты сбываются! через торрент pb.wtf

Качают: 1 [ 0 KB/s ]
Размер: 4.73 GB | Добавлен: 6 лет назад | Торрент скачан:82 раза
Скачать  

20-10-2014 16:09 Мечты сбываются! Скачать торрент  

Мечты сбываются! / One Chance
Год выпуска: 2013
Страна: Великобритания, США
Жанр: драма, комедия, мелодрама, биография
Продолжительность: 01:43:50
Перевод: Профессиональный многоголосый
Субтитры: Английские

Режиссер: Дэвид Фрэнкел
Продюссер: Саймон Коуэлл, Майкл Менчел, Крис Тикье
Сценарий: Джастин Закэм
Бюджет: $53 216
Премьера в мире: 9 сентября 2013

IMDB 6.70 (3924)


В ролях: Джеймс Корден, Джули Уолтерс, Александра Роуч, Колм Мини, Макензи Крук, Валерия Билелло, Тристан Гравель, Сион Тудор Оуэн, Джемайма Рупер, Александр Макквин, Сергей Чихачев

Описание: У каждого в жизни была минута славы. Или обязательно будет. Даже если тебе уже тридцать семь, от природы ты не красавец, работаешь в заштатном магазине сотовых телефонов, живешь на чердаке у родителей, а хочется тебе лишь одного — петь на оперной сцене.

Качество: BDRip 720p
Формат: MKV
Видео кодек: AVC
Аудио кодек: AC3 / DTS
Видео: MPEG-4 AVC, 4694 Кбит/с, 1280x534, 23.976 fps
Аудио#1: Русский: AC3, 2 ch, 128 Кбит/с, 48.0 KHz
Аудио#2: Английский: DTS, 6 ch, 1509 Кбит/c, 48.0 KHz

General
Unique ID : 237967029969333950709610147766011144042 (0xB306C86ACA325A13851299C3A84BA76A)
Complete name : /home/sb1855/files/One.Chance.2013.720p.BluRay.Rus.Eng.x264-KinoRay.mkv
Format : Matroska
Format version : Version 2
File size : 4.73 GiB
Duration : 1h 43mn
Overall bit rate : 6 525 Kbps
Encoded date : UTC 2014-10-20 12:11:27
Writing application : mkvmerge v3.3.0 ('Language') built on Mar 24 2010 14:59:24
Writing library : libebml v0.8.0 + libmatroska v0.9.0

Video
ID : 1
Format : AVC
Format/Info : Advanced Video Codec
Format profile : High@L4.1
Format settings, CABAC : Yes
Format settings, ReFrames : 12 frames
Codec ID : V_MPEG4/ISO/AVC
Duration : 1h 43mn
Bit rate : 4 693 Kbps
Width : 1 280 pixels
Height : 534 pixels
Display aspect ratio : 2.40:1
Frame rate : 23.976 fps
Color space : YUV
Chroma subsampling : 4:2:0
Bit depth : 8 bits
Scan type : Progressive
Bits/(Pixel*Frame) : 0.286
Stream size : 3.40 GiB (72%)
Writing library : x264 core 142 r2409kMod d6b4e63
Encoding settings : cabac=1 / ref=12 / deblock=1:-3:-3 / analyse=0x3:0x113 / me=umh / subme=10 / psy=1 / fade_compensate=0.00 / psy_rd=1.05:0.00 / mixed_ref=1 / me_range=16 / chroma_me=1 / trellis=2 / 8x8dct=1 / cqm=0 / deadzone=21,11 / fast_pskip=0 / chroma_qp_offset=-2 / threads=6 / lookahead_threads=1 / sliced_threads=0 / nr=0 / decimate=0 / interlaced=0 / bluray_compat=0 / constrained_intra=0 / fgo=0 / bframes=8 / b_pyramid=2 / b_adapt=2 / b_bias=0 / direct=3 / weightb=1 / open_gop=0 / weightp=2 / keyint=250 / keyint_min=23 / scenecut=40 / intra_refresh=0 / rc_lookahead=60 / rc=crf / mbtree=0 / crf=15.0000 / qcomp=0.70 / qpmin=0 / qpmax=69 / qpstep=4 / vbv_maxrate=62500 / vbv_bufsize=78125 / crf_max=0.0 / nal_hrd=none / filler=0 / ip_ratio=1.30 / pb_ratio=1.20 / aq=1:0.90
Language : English
Default : No
Forced : No

Audio #1
ID : 2
Format : AC-3
Format/Info : Audio Coding 3
Mode extension : CM (complete main)
Format settings, Endianness : Big
Codec ID : A_AC3
Duration : 1h 43mn
Bit rate mode : Constant
Bit rate : 192 Kbps
Channel(s) : 2 channels
Channel positions : Front: L R
Sampling rate : 48.0 KHz
Bit depth : 16 bits
Compression mode : Lossy
Stream size : 142 MiB (3%)
Title : AC3 2.0 @ 128 kbps - MVO
Language : Russian
Default : Yes
Forced : No

Audio #2
ID : 3
Format : DTS
Format/Info : Digital Theater Systems
Codec ID : A_DTS
Duration : 1h 43mn
Bit rate mode : Constant
Bit rate : 1 510 Kbps
Channel(s) : 6 channels
Channel positions : Front: L C R, Side: L R, LFE
Sampling rate : 48.0 KHz
Bit depth : 24 bits
Compression mode : Lossy
Delay relative to video : 11ms
Stream size : 1.09 GiB (23%)
Title : DTS 5.1 @ 1509 kbps
Language : English
Default : No
Forced : No

Text #1
ID : 4
Format : UTF-8
Codec ID : S_TEXT/UTF8
Codec ID/Info : UTF-8 Plain Text
Language : English
Default : No
Forced : No

Text #2
ID : 5
Format : UTF-8
Codec ID : S_TEXT/UTF8
Codec ID/Info : UTF-8 Plain Text
Title : SDH
Language : English
Default : No
Forced : No

Menu
00:00:00.000 : en: 1. IN THE CHOIR
00:08:46.109 : en: 2. SHARED LOVE
00:16:16.517 : en: 3. TAKING CHANCES
00:29:46.410 : en: 4. TALENT NIGHT / en: 5. ITALIAN TUTOR
00:39:09.138 : en: 6. HARSH LESSONS
00:48:53.347 : en: 7. LET ME EXPLAIN
01:02:24.115 : en: 8. MOVING IN
01:09:22.742 : en: 9. JOLLY GOOD FELLOW
01:19:58.252 : en:10. HEADS OR TAILS
01:29:35.120 : en:11. NESSUN DORMA
01:37:54.660 : en:12. END CREDITS

pb.wtf



Скачать Мечты сбываются! через торрент http://i68.fastpic.ru/big/2014/1020/88/79c086a3c97f56fc8b45664ad2ee6088.png Скачать фильм Мечты сбываются! через торрент бесплантно в хорошем качестве Описание: У каждого в жизни была минута славы. Или обязательно будет. Даже если тебе уже тридцать семь, от природы ты не красавец, ... 7.2 10 5
Торрент: Зарегистрирован [2014-10-20 16:09] · скачан: 82 раз
Статус: √ проверено
Размер: 4.73 GB
Как cкачать? Как скачать Мечты сбываются! через торрент | qTorrent

% Раздел Тема Автор DL S | L
Фильмы 2013 [DVDrip, WEB-DLRip, HDrip] [ 1.46 GB ] Мечты сбываются! / One Chance [2013 биография HDRip Профессиональное многоголосое ] Drakosha Скачать
2 | 0
Фильмы 2013 [DVDrip, WEB-DLRip, HDrip] [ 1.46 GB ] Мечты сбываются! / One Chance [2013 биография HDRip многоголосый] кэп Скачать
1 | 1

28-11-2019 20:33  

Отключить всю рекламу на сайте

24-10-2014 19:15 Мечты сбываются! Скачать торрент  

Только у меня рассинхрон звука после 18 минуты?pb.wtf



03-02-2015 18:22 Мечты сбываются! Скачать торрент  

У меня то же.Что делать ?pb.wtf



    Дорогой пользователь! Огромная просьба, поблагодарите релизера, оцените раздачу и оставьте свои комментарий, если Вы скачали Мечты сбываются! через торрент бесплатно! Внесите свою лепту в развитие PiratBit!
    Комментировать посты могут только пользователи прошедшие не сложную регистрацию
    Показать сообщения:    

    Мечты сбываются! через торрент
    Скачать бесплатно Мечты сбываются!
    Мечты сбываются! скачать торрент
    Мечты сбываются! смотреть онлайн
    Cкачать фильм Мечты сбываются! бесплатно
    Мечты сбываются! скачать торрент в хорошем качестве
    Мечты сбываются! смотреть онлайн бесплатно в хорошем качестве


    Вы не можете начинать темы
    Вы не можете отвечать на сообщения
    Вы не можете редактировать свои сообщения
    Вы не можете удалять свои сообщения
    Вы не можете голосовать в опросах
    Вы не можете прикреплять файлы к сообщениям
    Вы можете скачивать файлы