1 сезон

1 сезон

iTunes

1

КиноПоиск HD

Кинопоиск HD

iTunes

13

1 сезон

RePack

30

Новинка

ВАЖНО

ИГРА 18+

pack

RePack

MK11
pack

Легкие деньги

RePack

jed

RePack

fifa19

RePack

RDR2

RePack

NEED FOR SPEED™ PAYBACK

4 сезон

9 сезон

Бесстыжие 9 сезон

Все сериалы

все сериалы на PB.wtf

RePack

FAR CRY 5
  
Magnet ссылка

21 грамм / 21 Grams (Алехандро Гонсалес Иньярриту / Alejandro González Iñárritu) [2003, США, триллер, драма, криминал, BDRip, Дубляж] pb.wtf

21 грамм через торрент pb.wtf

Размер: 2.18 GB | Добавлен: 6 лет 5 мес. назад | Торрент скачан:393 раза
Скачать  

20-10-2014 18:44 21 грамм Скачать торрент  

21 грамм / 21 Grams «Сколько весит жизнь?»
Год выпуска: 2003
Страна: США
Жанр: триллер, драма, криминал
Продолжительность: 02:04:30
Перевод: Дубляж - ПАРАДИЗ-ВC
Субтитры: Отсутствует
Режиссер: Алехандро Гонсалес Иньярриту / Alejandro González Iñárritu
В ролях:


Наоми Уоттс (Cristina Peck), Шон Пенн (Paul Rivers), Бенисио Дель Торо (Jack Jordan), Шарлотта Генсбур (Mary Rivers), Эдди Марсан (Reverend John), Клеа ДюВалл (Claudia), Дэнни Хьюстон (Michael), Мелисса Лео (Marianne Jordan), Пол Кальдерон (Brown), Дэнис О’Хэйр (Dr. Rothberg), Карли Наон (Cathy), Клер Пакис (Laura)

Описание:
Говорят, что каждый человек в момент смерти теряет 21 грамм. Столько весит горстка монет в пять центов, плитка шоколада, птица колибри...
«21 грамм» - это история о надежде и человечности, жизнелюбии и выживании. Независимо от того, боитесь вы смерти или нет, она приходит, и в этот момент ваше тело становится на 21 грамм легче. Быть может, это вес человеческой души?

Рейтинг:
Бюджет:$20 000 000
MPAA: R - Лицам до 17 лет обязательно присутствие взрослого
Качество: BDRip
Формат: AVI
Видео кодек:XviD
Аудио кодек:AC3
Видео: XviD, 704x384 (16:9), 2114 kbps, 23,976 fps, 0,326 bpp
Аудио: AC3 / 5.1 / 48 kHz / 384 kbps / 16 bit - Дубляж - ПАРАДИЗ-ВC

General
Complete name : D:\Users\_KaisiK_\uTorrent\КИНО\21.gramm.2003.RUS.BDRip.XviD.AC3.-HQCLUB.avi
Format : AVI
Format/Info : Audio Video Interleave
Format profile : OpenDML
File size : 2.18 GiB
Duration : 2h 4mn
Overall bit rate : 2 510 Kbps
Movie name : 21 грамм / 21 Grams (2003) BDRip
Director : sociolog_melvas
Genre : триллер, драма, криминал
Writing application : VirtualDubMod 1.5.10.2 (build 2540/release)
Copyright : http://hqclub.net/
Comment : 16.10.2014

Video
ID : 0
Format : MPEG-4 Visual
Format profile : Advanced Simple@L5
Format settings, BVOP : 1
Format settings, QPel : No
Format settings, GMC : No warppoints
Format settings, Matrix : Custom
Codec ID : XVID
Codec ID/Hint : XviD
Duration : 2h 4mn
Bit rate : 2 114 Kbps
Width : 704 pixels
Height : 384 pixels
Display aspect ratio : 16:9
Frame rate : 23.976 fps
Color space : YUV
Chroma subsampling : 4:2:0
Bit depth : 8 bits
Scan type : Progressive
Compression mode : Lossy
Bits/(Pixel*Frame) : 0.326
Stream size : 1.84 GiB (84%)
Writing library : XviD 65

Audio
ID : 1
Format : AC-3
Format/Info : Audio Coding 3
Mode extension : CM (complete main)
Codec ID : 2000
Duration : 2h 4mn
Bit rate mode : Constant
Bit rate : 384 Kbps
Channel(s) : 6 channels
Channel positions : Front: L C R, Side: L R, LFE
Sampling rate : 48.0 KHz
Bit depth : 16 bits
Compression mode : Lossy
Stream size : 342 MiB (15%)
Alignment : Split accross interleaves
Interleave, duration : 42 ms (1.00 video frame)
Interleave, preload duration : 500 ms

[/code]
pb.wtf



Скачать 21 грамм через торрент http://i65.fastpic.ru/big/2014/1020/af/973970592d4ae0a9e208588433405faf.jpg Скачать фильм 21 грамм через торрент бесплантно в хорошем качестве Описание: Говорят, что каждый человек в момент смерти теряет 21 грамм. Столько весит горстка монет в пять центов, плитка шоколада, птица ... 10 10 13
Info! Золотая раздача, скачанное не засчитывается.
Торрент: Зарегистрирован [2014-10-20 18:44] · скачан: 393 раз
Статус: √ проверено
Размер: 2.18 GB
Как cкачать? Как скачать 21 грамм через торрент | UTorrent

% Раздел Тема Автор DL S | L
Фильмы [HD 720p, 1080p] (Хороший звук DUB, MVO) [ 11.54 GB ] 21 грамм / 21 Grams [2003 BDRip 1080p] DUB еnvy Скачать
1 | 0
Фильмы [HD 720p, 1080p] (Хороший звук DUB, MVO) [ 11.08 GB ] 21 грамм / 21 Grams [2003 BDRip 720p] diletant Скачать
1 | 0
Фильмы 2001-2005 [ 3.82 GB ] 21 грамм / 21 Grams [2003 BDRip-AVC] VintMosina Скачать
1 | 0
Фильмы 2001-2005 [ 2.58 GB ] 21 грамм / 21 Grams [2003 BDRip] snouman82 Скачать
1 | 0
Фильмы 2001-2005 [ 2.14 GB ] 21 грамм / 21 Grams [2003 DVDRip] Pasha74 Скачать
1 | 0


Последний раз редактировалось: _KaisiK_ (2014-12-23 09:31), всего редактировалось 1 раз

28-11-2019 20:33  

Отключить всю рекламу на сайте

20-10-2014 18:48 21 грамм Скачать торрент  

отличный фильмpb.wtf



    Дорогой пользователь! Огромная просьба, поблагодарите релизера, оцените раздачу и оставьте свои комментарий, если Вы скачали 21 грамм через торрент бесплатно! Внесите свою лепту в развитие PiratBit!
    Комментировать посты могут только пользователи прошедшие не сложную регистрацию
    Показать сообщения:    

    21 грамм через торрент
    Скачать бесплатно 21 грамм
    21 грамм скачать торрент
    21 грамм смотреть онлайн
    Cкачать фильм 21 грамм бесплатно
    21 грамм скачать торрент в хорошем качестве
    21 грамм смотреть онлайн бесплатно в хорошем качестве


    Вы не можете начинать темы
    Вы не можете отвечать на сообщения
    Вы не можете редактировать свои сообщения
    Вы не можете удалять свои сообщения
    Вы не можете голосовать в опросах
    Вы не можете прикреплять файлы к сообщениям
    Вы можете скачивать файлы