Ссылка на приватное зеркало нашего сайта всего за 1$. Внимание количество ограничено!!!

2 сезон

iTunes

1 сезон

1

iTunes

iTunes

iTunes

1 сезон

RePack

30

ИГРА 18+

pack

ВАЖНО

!!Акция!!

Alien_RageХит недели

RePack

MK11
pack

Забери бонус

RePack

jed

!!Акция!!

Alien_Rage

RePack

fifa19

RePack

Assassins Creed: Odyssey

RePack

NEED FOR SPEED™ PAYBACK

4 сезон

9 сезон

Бесстыжие 9 сезон

Все сериалы

все сериалы на PB.wtf

RePack

FAR CRY 5
  

Трансформеры: Эпоха истребления / Transformers: Age of Extinction (Майкл Бэй) [2014 г., фантастика, боевик, приключения, BDRip 720p, Дубляж, iTunes] pb.wtf

Трансформеры: Эпоха истребления через торрент pb.wtf

Размер: 12.64 GB | Добавлен: 6 лет назад | Торрент скачан:443 раза
Скачать  

20-10-2014 22:47 Трансформеры: Эпоха истребления Скачать торрент  

Трансформеры: Эпоха истребления / Transformers: Age of Extinction
Год выпуска: 2014
Страна: США, Китай
Жанр: фантастика, боевик, приключения
Продолжительность: 02:45:18
Перевод: Дубляж, iTunes
Субтитры: Русские, английские

Режиссер: Майкл Бэй
Продюссер: Йен Брайс, Том ДеСанто, Лоренцо Ди Бонавентура
Сценарий: Эрен Крюгер
Бюджет: $210 000 000
Премьера в мире: 25 июня 2014

IMDB 6.00 (135 001)


В ролях: Марк Уолберг, Никола Пельтц, Джек Рейнор, Стэнли Туччи, Келси Грэммер, Титус Уэлливер, ТиДжей Миллер, Ли Бинбин, София Майлс, Питер Каллен, Сергей Бурунов, Татьяна Ермилова, Иван Калинин, Никита Прозоровский, Игорь Старосельцев

Описание: Автоботы и десептиконы оставили человечество собирать планету по кусочкам. Между тем группа могущественных бизнесменов и гениальных ученых пытается извлечь уроки из ошибок прошлого и улучшить технологии до такой степени, чтобы выйти за пределы контролируемого ранее. В это время другая группа — древних мощных трансформеров — берет Землю под прицел.

Сэмпл

Качество: BDRip 720p
Формат: MKV
Видео кодек: AVC
Аудио кодек: AC3
Видео: MPEG 4 AVC, 9718 Кбит/с, 1280x534, 23.976 кадр/с
Аудио#1: Русский: AC3, 6 ch, 384 Кбит/с, 48 kHz
Аудио#2: Английский: AC3, 6 ch, 640 Кбит/с, 48 kHz
General
Unique ID : 180034578790630313638118952801416518770 (0x8771660CBBD7E83EA6768BD054501C72)
Complete name : /home/sb1855/files/Transformers.Age.of.Extinction.2014.720p.BluRay.DD5.1.x264.Rus.Eng-LolHD.mkv
Format : Matroska
Format version : Version 4 / Version 2
File size : 12.6 GiB
Duration : 2h 45mn
Overall bit rate : 11.0 Mbps
Movie name : Transformers: Age of Extinction (2014)
Encoded date : UTC 2014-10-20 19:14:19
Writing application : mkvmerge v6.5.0 ('Isn't she lovely') built on Oct 20 2013 12:50:05
Writing library : libebml v1.3.0 + libmatroska v1.4.1
DURATION : 02:34:34.390000000
NUMBER_OF_FRAMES : 2155
NUMBER_OF_BYTES : 72173
_STATISTICS_WRITING_APP : mkvmerge v7.2.0 ('On Every Street') 64bit built on Sep 13 2014 15:52:10
_STATISTICS_WRITING_DATE_UTC : 2014-09-21 17:51:21
_STATISTICS_TAGS : BPS DURATION NUMBER_OF_FRAMES NUMBER_OF_BYTES

Video
ID : 1
Format : AVC
Format/Info : Advanced Video Codec
Format profile : High@L4.1
Format settings, CABAC : Yes
Format settings, ReFrames : 12 frames
Codec ID : V_MPEG4/ISO/AVC
Duration : 2h 45mn
Bit rate : 9 718 Kbps
Width : 1 280 pixels
Height : 534 pixels
Display aspect ratio : 2.40:1
Frame rate : 23.976 fps
Color space : YUV
Chroma subsampling : 4:2:0
Bit depth : 8 bits
Scan type : Progressive
Bits/(Pixel*Frame) : 0.593
Stream size : 11.2 GiB (89%)
Title : Transformers: Age of Extinction (2014)
Writing library : x264 core 142 r2479kMod dd79a61
Encoding settings : cabac=1 / ref=12 / deblock=1:-3:-3 / analyse=0x3:0x133 / me=umh / subme=10 / psy=1 / fade_compensate=0.00 / psy_rd=1.05:0.00 / mixed_ref=1 / me_range=24 / chroma_me=1 / trellis=2 / 8x8dct=1 / cqm=0 / deadzone=21,11 / fast_pskip=0 / chroma_qp_offset=-2 / threads=12 / lookahead_threads=3 / sliced_threads=0 / nr=0 / decimate=0 / interlaced=0 / bluray_compat=0 / constrained_intra=0 / fgo=0 / bframes=10 / b_pyramid=2 / b_adapt=2 / b_bias=0 / direct=3 / weightb=1 / open_gop=0 / weightp=2 / keyint=250 / keyint_min=23 / scenecut=40 / intra_refresh=0 / rc_lookahead=60 / rc=crf / mbtree=0 / crf=17.5000 / qcomp=0.70 / qpmin=0 / qpmax=69 / qpstep=4 / vbv_maxrate=50000 / vbv_bufsize=62500 / crf_max=0.0 / nal_hrd=none / filler=0 / ip_ratio=1.20 / pb_ratio=1.20 / aq=3:0.75 / zones=3567,3826,b=1.2/7898,7977,b=1.15/10516,10563,b=1.1/12632,12693,b=1.15/12744,12803,b=1.15/12883,12915,b=1.2/12956,13078,b=1.15/13122,13251,b=1.2/13405,13501,b=1.2/20945,28095,b=1.3/40076,40343,b=1.2/40556,40939,b=1.2/44048,44143,b=1.2/53381,53432,b=1.3/55036,55093,b=1.3/55912,56572,b=1.3/56829,57041,b=1.3/58904,58942,b=1.3/59072,59099,b=1.2/59312,59351,b=1.3/59736,59889,b=1.3/60510,60678,b=1.3/60814,60880,b=1.3/61175,61234,b=1.3/61506,61586,b=1.3/61889,61923,b=1.3/62002,62022,b=1.3/62283,62309,b=1.3/62816,63094,b=1.3/64775,65461,b=1.2/65696,66366,b=1.3/80200,80406,b=1.3/91515,91668,b=1.3/97550,97726,b=1.3/105787,106181,b=1.3/106313,106432,b=1.3/106565,106672,b=1.3/106762,106866,b=1.3/107257,107695,b=1.3/109836,110356,b=1.3/111038,111070,b=1.3/111415,111460,b=1.3/111838,112829,b=1.3/113108,115439,b=1.3/115615,115803,b=1.4/115992,120399,b=1.3/121313,124769,b=1.3/125368,150460,b=1.3/160903,161280,b=1.3/165519,166349,b=1.3/167903,169593,b=1.3/178482,179543,b=1.2/179943,179995,b=1.2/181577,181769,b=1.2/183183,183328,b=1.2/188010,188668,b=1.4/189149,226085,b=1.3/226086,237536,b=0.3
Language : English
Default : Yes
Forced : No
DURATION : 02:45:07.273000000
NUMBER_OF_FRAMES : 237537
NUMBER_OF_BYTES : 12301556427
_STATISTICS_WRITING_APP : mkvmerge v7.2.0 ('On Every Street') 64bit built on Sep 13 2014 15:52:10
_STATISTICS_WRITING_DATE_UTC : 2014-09-21 17:51:21
_STATISTICS_TAGS : BPS DURATION NUMBER_OF_FRAMES NUMBER_OF_BYTES

Audio #1
ID : 2
Format : AC-3
Format/Info : Audio Coding 3
Mode extension : CM (complete main)
Format settings, Endianness : Big
Codec ID : A_AC3
Duration : 2h 45mn
Bit rate mode : Constant
Bit rate : 384 Kbps
Channel(s) : 6 channels
Channel positions : Front: L C R, Side: L R, LFE
Sampling rate : 48.0 KHz
Bit depth : 16 bits
Compression mode : Lossy
Stream size : 454 MiB (4%)
Language : Russian
Default : Yes
Forced : No

Audio #2
ID : 3
Format : AC-3
Format/Info : Audio Coding 3
Mode extension : CM (complete main)
Format settings, Endianness : Big
Codec ID : A_AC3
Duration : 2h 45mn
Bit rate mode : Constant
Bit rate : 640 Kbps
Channel(s) : 6 channels
Channel positions : Front: L C R, Side: L R, LFE
Sampling rate : 48.0 KHz
Bit depth : 16 bits
Compression mode : Lossy
Stream size : 756 MiB (6%)
Title : Transformers: Age of Extinction (2014)
Language : English
Default : No
Forced : No

Text #1
ID : 4
Format : UTF-8
Codec ID : S_TEXT/UTF8
Codec ID/Info : UTF-8 Plain Text
Language : Russian
Default : No
Forced : No

Text #2
ID : 5
Format : UTF-8
Codec ID : S_TEXT/UTF8
Codec ID/Info : UTF-8 Plain Text
Title : FORCE
Language : English
Default : Yes
Forced : Yes

Text #3
ID : 6
Format : UTF-8
Codec ID : S_TEXT/UTF8
Codec ID/Info : UTF-8 Plain Text
Title : SDH
Language : English
Default : No
Forced : No

Text #4
ID : 7
Format : UTF-8
Codec ID : S_TEXT/UTF8
Codec ID/Info : UTF-8 Plain Text
Language : English
Default : No
Forced : No

Menu
00:00:00.000 : en:Chapter 01
00:06:51.578 : en:Chapter 02
00:14:33.581 : en:Chapter 03
00:21:37.463 : en:Chapter 04
00:30:13.395 : en:Chapter 05
00:38:45.990 : en:Chapter 06
00:46:08.057 : en:Chapter 07
00:51:39.513 : en:Chapter 08
00:59:09.337 : en:Chapter 09
01:07:48.648 : en:Chapter 10
01:15:14.552 : en:Chapter 11
01:23:25.292 : en:Chapter 12
01:29:14.724 : en:Chapter 13
01:37:16.956 : en:Chapter 14
01:44:35.436 : en:Chapter 15
01:51:25.053 : en:Chapter 16
01:57:47.936 : en:Chapter 17
02:04:48.481 : en:Chapter 18
02:12:35.865 : en:Chapter 19
02:21:04.206 : en:Chapter 20
02:28:48.670 : en:Chapter 21
02:37:09.629 : en:Chapter 22

pb.wtf



Скачать Трансформеры: Эпоха истребления через торрент http://i65.fastpic.ru/big/2014/1021/32/68563242ec423b595c72b5d800a8d632.png Скачать фильм Трансформеры: Эпоха истребления через торрент бесплантно в хорошем качестве Описание: Автоботы и десептиконы оставили человечество собирать планету по кусочкам. Между тем группа могущественных бизнесменов и ... 9.8 10 17
Info! Золотая раздача, скачанное не засчитывается.
Торрент: Зарегистрирован [2014-10-20 22:48] · скачан: 443 раз
Статус: √ проверено
Размер: 12.64 GB
Как cкачать? Как скачать Трансформеры: Эпоха истребления через торрент | qTorrent

% Раздел Тема Автор DL S | L
Ultra HD (UHD: 2K, 4K, 8K) — видео сверхвысокой чёткости [ 85.59 GB ] Трансформеры: Эпоха истребления / Transformers: Age of Extinction [2014 UHD BDRemux 2160p] DUB [] bober100 Скачать
1 | 0
Ultra HD (UHD: 2K, 4K, 8K) — видео сверхвысокой чёткости [ 31.71 GB ] Трансформеры: Эпоха истребления / Transformers: Age of Extinction [2014 UHD BDRip 2160p] DUB [rus ukr] sheker187 Скачать
1 | 0
Фильмы [HD 720p, 1080p] (Хороший звук DUB, MVO) [ 11.2 GB ] Трансформеры: Эпоха истребления / Transformers: Age of Extinction [2014 BDRip-HEVC 1080p ] DUB [] bober100 Скачать
1 | 0
Ultra HD (UHD: 2K, 4K, 8K) — видео сверхвысокой чёткости [ 89.42 GB ] Трансформеры: Эпоха истребления / Transformers: Age of Extinction [2014 UHD Blu-ray 2160p] DUB [rus ukr] [Сustom] sheker187 Скачать
1 | 0
Фильмы (HD 720p, 1080p) (48-60 fps) [ 9.43 GB ] Трансформеры: Эпоха истребления / Transformers: Age of Extinction [2014 BDRip 720p 48fps IMAX ] mimok Скачать
1 | 0
Фильмы [HD 720p, 1080p] (Хороший звук DUB, MVO) [ 15.63 GB ] Трансформеры: Эпоха истребления / Transformers: Age of Extinction [IMAX] [2014 BDRip 1080p Dub ] Seedtank Скачать
1 | 0
3D Фильмы [ 31.08 GB ] Трансформеры: Эпоха истребления / Transformers: Age Of Extinction [2014 BDrip 1080p] OverUnder / Вертикальная стереопара serega768 Скачать
1 | 0

28-11-2019 20:33  

Отключить всю рекламу на сайте

23-10-2014 10:38 Трансформеры: Эпоха истребления Скачать торрент  

А где русские субтитры?pb.wtf



    Дорогой пользователь! Огромная просьба, поблагодарите релизера, оцените раздачу и оставьте свои комментарий, если Вы скачали Трансформеры: Эпоха истребления через торрент бесплатно! Внесите свою лепту в развитие PiratBit!
    Комментировать посты могут только пользователи прошедшие не сложную регистрацию
    Показать сообщения:    

    Трансформеры: Эпоха истребления через торрент
    Скачать бесплатно Трансформеры: Эпоха истребления
    Трансформеры: Эпоха истребления скачать торрент
    Трансформеры: Эпоха истребления смотреть онлайн
    Cкачать фильм Трансформеры: Эпоха истребления бесплатно
    Трансформеры: Эпоха истребления скачать торрент в хорошем качестве
    Трансформеры: Эпоха истребления смотреть онлайн бесплатно в хорошем качестве


    Вы не можете начинать темы
    Вы не можете отвечать на сообщения
    Вы не можете редактировать свои сообщения
    Вы не можете удалять свои сообщения
    Вы не можете голосовать в опросах
    Вы не можете прикреплять файлы к сообщениям
    Вы можете скачивать файлы