Ссылка на приватное зеркало нашего сайта всего за 1$. Внимание количество ограничено!!!

2 сезон

iTunes

1 сезон

1

iTunes

iTunes

iTunes

1 сезон

RePack

30

ИГРА 18+

pack

ВАЖНО

!!Акция!!

Alien_RageХит недели

RePack

MK11
pack

Забери бонус

RePack

jed

!!Акция!!

Alien_Rage

RePack

fifa19

RePack

Assassins Creed: Odyssey

RePack

NEED FOR SPEED™ PAYBACK

4 сезон

9 сезон

Бесстыжие 9 сезон

Все сериалы

все сериалы на PB.wtf

RePack

FAR CRY 5
  

Идущий в огне / Firewalker (Дж. Ли Томпсон) [1986, боевик, комедия, приключения, BDRip 720p] DVO, AVO pb.wtf

Идущий в огне через торрент pb.wtf

Размер: 4.37 GB | Добавлен: 6 лет назад | Торрент скачан:37 раз
Скачать  

21-10-2014 07:32 Идущий в огне Скачать торрент  

Информация о фильме

Русское название: Идущий в огне
Оригинальное название: Firewalker
Год выхода: 1986
Жанр: боевик, комедия, приключения
Режиссер: Дж. Ли Томпсон
Выпущено: США
Продолжительность: 01:45:05
Перевод: Профессиональный (Двухголосый закадровый), Авторский (А.Гаврилов) (А.Дольский )
В ролях: Чак Норрис, Луис Госсет мл., Мелоди Андерсон, Уилл Сэмпсон, Сонни Лэндэм, Джон Рис-Дэвис, Йен Эберкромби, Ричард Ли-Сун, Сайде Сильвия Гутьеррес, Альваро Карканьо


Сюжет фильма

У Патриции Гудвин есть карта, которая может привести к золотому кладу ацтеков. Но в одиночку хрупкой женщине с такой миссией не справиться! Поэтому она нанимает двух дюжих авантюристов, готовых за золотые посулы пройти вместе с ней сквозь огонь и воду. Это Макс и его приятель Лео. Троица охотников за древностями отправляется в путь, который будет полон и опасностей, и препятствий, и смешных моментов! Если их дерзкий план будет осуществлен, трое друзей вернутся домой богачами!


Файл

Качество: BDRip 1080p
Формат: AVC (библиотека кодирования x.264)
Контейнер (Расширение): MKV
Видео кодек: AVC
Аудио кодек:AC3
Видео: 1280x692, 4930 Кбит/сек, 23,976 кадр/сек, AVC, x264, High@L4.1, 1.85:1, 0.230 Бит/[Пиксели*Кадры]
Аудио 1: AC-3, 192 Кбит/сек, 2 канала(ов), 48,0 КГц - Двухголосый закадровый, Paramount / Русский
Аудио 2: AC-3, 192 Кбит/сек, 2 канала(ов), 48,0 КГц - Одноголосый закадровый, А.Гаврилов / Русский
Аудио 3: AC-3, 192 Кбит/сек, 2 канала(ов), 48,0 КГц - Одноголосый закадровый, А.Дольский / Русский
Аудио 4: AC-3, 448 Кбит/сек, 6 канала(ов), 48,0 КГц - Оригинал / Английский
Субтитры: Английские | Полные
Форсированные субтитры: Нет
Чаптеры (Главы): Есть






Сэмпл




Автор Рипа: Сообщество:


скриншот   скриншот   скриншот  

Код:

Format                                   : Matroska
Format version                           : Version 2
File size                                : 4.37 GiB
Duration                                 : 1h 45mn
Overall bit rate                         : 5 955 Kbps
Movie name                               : Идущий в огне.(1986).BDRip.720p.[envy]
Encoded date                             : UTC 2014-10-21 04:57:07
Writing application                      : mkvmerge v5.8.0 ('No Sleep / Pillow') built on Sep  2 2012 15:37:04
Writing library                          : libebml v1.2.3 + libmatroska v1.3.0

Video
ID                                       : 1
Format                                   : AVC
Format/Info                              : Advanced Video Codec
Format profile                           : High@L4.1
Format settings, CABAC                   : Yes
Format settings, ReFrames                : 9 frames
Codec ID                                 : V_MPEG4/ISO/AVC
Duration                                 : 1h 45mn
Bit rate                                 : 4 930 Kbps
Width                                    : 1 280 pixels
Height                                   : 692 pixels
Display aspect ratio                     : 1.85:1
Frame rate mode                          : Constant
Frame rate                               : 23.976 fps
Color space                              : YUV
Chroma subsampling                       : 4:2:0
Bit depth                                : 8 bits
Scan type                                : Progressive
Bits/(Pixel*Frame)                       : 0.232
Stream size                              : 3.53 GiB (81%)
Title                                    : Идущий в огне.(1986).BDRip.720p.[envy]
Writing library                          : x264 core 142 r2479 dd79a61
Encoding settings                        : cabac=1 / ref=9 / deblock=1:-3:-2 / analyse=0x3:0x113 / me=umh / subme=11 / psy=1 / psy_rd=1.00:0.00 / mixed_ref=1 / me_range=32 / chroma_me=1 / trellis=2 / 8x8dct=1 / cqm=0 / deadzone=21,11 / fast_pskip=0 / chroma_qp_offset=-2 / threads=12 / lookahead_threads=2 / sliced_threads=0 / nr=0 / decimate=1 / interlaced=0 / bluray_compat=0 / constrained_intra=0 / bframes=8 / b_pyramid=2 / b_adapt=2 / b_bias=0 / direct=3 / weightb=1 / open_gop=0 / weightp=2 / keyint=240 / keyint_min=23 / scenecut=40 / intra_refresh=0 / rc=2pass / mbtree=0 / bitrate=4930 / ratetol=2.0 / qcomp=0.60 / qpmin=0 / qpmax=69 / qpstep=4 / cplxblur=20.0 / qblur=0.5 / ip_ratio=1.40 / pb_ratio=1.30 / aq=2:1.00
Language                                 : English
Default                                  : Yes
Forced                                   : No

Audio #1
ID                                       : 2
Format                                   : AC-3
Format/Info                              : Audio Coding 3
Mode extension                           : CM (complete main)
Format settings, Endianness              : Big
Codec ID                                 : A_AC3
Duration                                 : 1h 45mn
Bit rate mode                            : Constant
Bit rate                                 : 192 Kbps
Channel(s)                               : 2 channels
Channel positions                        : Front: L R
Sampling rate                            : 48.0 KHz
Bit depth                                : 16 bits
Compression mode                         : Lossy
Stream size                              : 144 MiB (3%)
Title                                    : DVO Paramount
Default                                  : Yes
Forced                                   : No

Audio #2
ID                                       : 3
Format                                   : AC-3
Format/Info                              : Audio Coding 3
Mode extension                           : CM (complete main)
Format settings, Endianness              : Big
Codec ID                                 : A_AC3
Duration                                 : 1h 45mn
Bit rate mode                            : Constant
Bit rate                                 : 192 Kbps
Channel(s)                               : 2 channels
Channel positions                        : Front: L R
Sampling rate                            : 48.0 KHz
Bit depth                                : 16 bits
Compression mode                         : Lossy
Stream size                              : 144 MiB (3%)
Title                                    : Gavrilov
Language                                 : Russian
Default                                  : No
Forced                                   : No

Audio #3
ID                                       : 4
Format                                   : AC-3
Format/Info                              : Audio Coding 3
Mode extension                           : CM (complete main)
Format settings, Endianness              : Big
Codec ID                                 : A_AC3
Duration                                 : 1h 45mn
Bit rate mode                            : Constant
Bit rate                                 : 192 Kbps
Channel(s)                               : 2 channels
Channel positions                        : Front: L R
Sampling rate                            : 48.0 KHz
Bit depth                                : 16 bits
Compression mode                         : Lossy
Stream size                              : 144 MiB (3%)
Title                                    : Doisky
Language                                 : Russian
Default                                  : No
Forced                                   : No

Audio #4
ID                                       : 5
Format                                   : AC-3
Format/Info                              : Audio Coding 3
Mode extension                           : CM (complete main)
Format settings, Endianness              : Big
Codec ID                                 : A_AC3
Duration                                 : 1h 45mn
Bit rate mode                            : Constant
Bit rate                                 : 448 Kbps
Channel(s)                               : 6 channels
Channel positions                        : Front: L C R, Side: L R, LFE
Sampling rate                            : 48.0 KHz
Bit depth                                : 16 bits
Compression mode                         : Lossy
Stream size                              : 337 MiB (8%)
Title                                    : ng
Language                                 : English
Default                                  : No
Forced                                   : No

Text
ID                                       : 6
Format                                   : UTF-8
Codec ID                                 : S_TEXT/UTF8
Codec ID/Info                            : UTF-8 Plain Text
Title                                    : full
Language                                 : English
Default                                  : No
Forced                                   : No

Menu
00:00:00.000                             : :Chapter 01
00:06:37.980                             : :Chapter 02
00:20:41.031                             : :Chapter 03
00:26:44.978                             : :Chapter 04
00:36:07.957                             : :Chapter 05
00:46:44.968                             : :Chapter 06
00:55:07.929                             : :Chapter 07
01:01:37.985                             : :Chapter 08
01:10:50.996                             : :Chapter 09
01:18:29.912                             : :Chapter 10
01:31:30.943                             : :Chapter 11
01:42:19.925                             : :Chapter 12
01:45:04.840                             : :Chapter 13



pb.wtf



Скачать Идущий в огне через торрент http://4.firepic.org/4/images/2014-10/21/d2vlvt4tdilk.png Скачать фильм Идущий в огне через торрент бесплантно в хорошем качестве В ролях: Чак Норрис, Луис Госсет мл., Мелоди Андерсон, Уилл Сэмпсон, Сонни Лэндэм, Джон Рис-Дэвис, Йен Эберкромби, Ричард Ли-Сун, Сайде ... 10 10 4
Торрент: Зарегистрирован [2014-10-21 07:32] · скачан: 37 раз
Статус: √ проверено
Размер: 4.37 GB
Как cкачать? Как скачать Идущий в огне через торрент | qTorrent

% Раздел Тема Автор DL S | L
Фильмы [HD 720p, 1080p] (Хороший звук DUB, MVO) [ 11.98 GB ] Идущий в огне / Firewalker [1986 BDRip 1080p by msltel] 2 x DVO 4 x AVO msltel Скачать
1 | 0
Фильмы [HD 720p, 1080p] (Хороший звук DUB, MVO) [ 5 GB ] Идущий в огне / Firewalker [1986 BDRip 720p by msltel] 2 x DVO 4 x AVO msltel Скачать
1 | 0
Фильмы до 2000 г. [ 3.06 GB ] Идущий в огне / Firewalker [1986 BDRip-AVC by msltel] 2 x DVO 4 x AVO msltel Скачать
1 | 0

28-11-2019 20:33  

Отключить всю рекламу на сайте

    Дорогой пользователь! Огромная просьба, поблагодарите релизера, оцените раздачу и оставьте свои комментарий, если Вы скачали Идущий в огне через торрент бесплатно! Внесите свою лепту в развитие PiratBit!
    Комментировать посты могут только пользователи прошедшие не сложную регистрацию
    Показать сообщения:    

    Идущий в огне через торрент
    Скачать бесплатно Идущий в огне
    Идущий в огне скачать торрент
    Идущий в огне смотреть онлайн
    Cкачать фильм Идущий в огне бесплатно
    Идущий в огне скачать торрент в хорошем качестве
    Идущий в огне смотреть онлайн бесплатно в хорошем качестве


    Вы не можете начинать темы
    Вы не можете отвечать на сообщения
    Вы не можете редактировать свои сообщения
    Вы не можете удалять свои сообщения
    Вы не можете голосовать в опросах
    Вы не можете прикреплять файлы к сообщениям
    Вы можете скачивать файлы