Ссылка на приватное зеркало нашего сайта всего за 1$. Внимание количество ограничено!!!

2 сезон

iTunes

1 сезон

1

iTunes

iTunes

iTunes

1 сезон

RePack

30

ИГРА 18+

pack

ВАЖНО

!!Акция!!

Alien_RageХит недели

RePack

MK11
pack

Забери бонус

RePack

jed

!!Акция!!

Alien_Rage

RePack

fifa19

RePack

Assassins Creed: Odyssey

RePack

NEED FOR SPEED™ PAYBACK

4 сезон

9 сезон

Бесстыжие 9 сезон

Все сериалы

все сериалы на PB.wtf

RePack

FAR CRY 5
  

Дом с лилиями /Сезон: 1/ серии 1-24 из 24 (Владимир Краснопольский ) [2013, Россия, Украина, драма, WEB-DLRip] pb.wtf

Дом с лилиями через торрент pb.wtf

Размер: 12.96 GB | Добавлен: 6 лет назад | Торрент скачан:403 раза
Скачать  

22-10-2014 16:35 Дом с лилиями Скачать торрент  

Дом с лилиями
Год выпуска: 2013
Страна: Россия/Украина
Жанр: драма
Продолжительность: 54 мин.(серия)
Перевод:оригинал

Режиссер: Владимир Краснопольский

Продюссер: Анатолий Чижиков, Наталья Чижикова, Сергей Куликов

Сценарий: Мария Бек, Елена Бойко

оператор: Тимур Зельма

композитор: Евгений Ширяев



В ролях: Сергей Маховиков, Дарья Мороз, Николай Добрынин, Олеся Судзиловская, Евгений Князев, Виктор Раков, Борис Химичев, Сергей Баталов, Михаил Жигалов

Описание: «Дом с лилиями» — семейная сага о судьбе героя-фронтовика Михаила Говорова, его любимых женщинах и детях, предоставляющая зрителю возможность проследить судьбу нескольких поколений советских и постсоветских людей, начиная с середины ХХ века до наших дней.
После окончания Великой Отечественной войны герой-фронтовик коммунист Михаил Говоров занимает высокую партийную должность в одном из областных центров и со всей семьей переезжает в загородный дом. На первых порах ни сам Говоров, ни члены его семье не обращают особого внимания на легенды, которыми окутано их новое место жительства. По преданию, на дом наложено проклятие, и ни его владельцы, ни их дети и внуки не будут счастливы в любви…

Качество: WEB-DLRip
Формат: AVI
Видео кодек: XviD
Аудио кодек: AC3
Видео: XviD, ~ 1900 Кбит/с, 720x400
Аудио: АС3, 2 ch, 192 Кбит/с

12+
скриншот  скриншот  скриншот  скриншот  скриншот  скриншот  скриншот  скриншот  скриншот  
скриншот  скриншот  скриншот  





Общее
Полное имя : C:\Users\Иван\Desktop\Дом с лилиями(сериал)\Дом с лилиями.(01.seriya)..2014.XviD.WEBDLRip.400p.by.simka.avi
Формат : AVI
Формат/Информация : Audio Video Interleave
Размер файла : 553 Мбайт
Продолжительность : 54 м.
Общий поток : 1416 Кбит/сек
Программа кодирования : VirtualDubMod 1.5.10.3 | www.virtualdub-fr.org || (build 2550/release)
Библиотека кодирования : VirtualDubMod build 2550/release

Видео
Идентификатор : 0
Формат : MPEG-4 Visual
Профиль формата : Advanced Simple@L5
Параметр BVOP формата : 1
Параметр QPel формата : Нет
Параметр GMC формата : Без точки перехода
Параметр матрицы формата : Default (H.263)
Идентификатор кодека : XVID
Идентификатор кодека/Подсказка : XviD
Продолжительность : 54 м.
Битрейт : 1214 Кбит/сек
Ширина : 720 пикселей
Высота : 400 пикселей
Соотношение сторон : 16:9
Частота кадров : 25,000 кадров/сек
Цветовое пространство : YUV
Субдискретизация насыщенности : 4:2:0
Битовая глубина : 8 бит
Тип развёртки : Прогрессивная
Метод сжатия : С потерями
Бит/(Пиксели*Кадры) : 0.169
Размер потока : 474 Мбайт (86%)
Библиотека кодирования : XviD 1.2.1 (UTC 2008-12-04)

Аудио
Идентификатор : 1
Формат : MPEG Audio
Версия формата : Version 1
Профиль формата : Layer 3
Режим : Joint stereo
Расширение режима : MS Stereo
Идентификатор кодека : 55
Идентификатор кодека/Подсказка : MP3
Продолжительность : 54 м.
Вид битрейта : Постоянный
Битрейт : 192 Кбит/сек
Каналы : 2 канала
Частота : 44,1 КГц
Метод сжатия : С потерями
Размер потока : 74,9 Мбайт (14%)
Выравнивание : Разделение по промежуткам
Продолжительность промежутка : 40 мс. (1,00 видеокадр)
Время предзагрузки промежутка : 500 мс.
Библиотека кодирования : LAME3.99r
Настройки программы : -m j -V 4 -q 2 -lowpass 18.6 -b 192

pb.wtf



Скачать Дом с лилиями через торрент http://pic.kartinco.top/images/7/eo3sn.jpg Скачать фильм Дом с лилиями через торрент бесплантно в хорошем качестве Описание: «Дом с лилиями» — семейная сага о судьбе героя-фронтовика Михаила Говорова, его любимых женщинах и детях, предоставляющая зрителю ... 9.9 10 10
Торрент: Зарегистрирован [2014-10-22 16:35] · скачан: 403 раз
Статус: √ проверено
Размер: 12.96 GB
Как cкачать? Как скачать Дом с лилиями через торрент | qTorrent



Последний раз редактировалось: Bibendi (2014-10-23 03:42), всего редактировалось 6 раз(а)

28-11-2019 20:33  

Отключить всю рекламу на сайте

22-10-2014 16:47 Дом с лилиями Скачать торрент  

http://pb.wtf/topic/60082/
BUDDAA,

Цитата:

1. Обложка
2.1 Размер обложки не должен превышать 700*700 пикселей (небольшие отклонения от нормы возможны на усмотрение модератора).

1. Заголовок
1.1 Общий вид:
Название на русском / Название на оригинале /сезонов (Кол-во серий) (режиссер) [год, жанр, качество]

Скриншоты не соответствуют заявленному разрешению Перезалейте
http://pb.wtf/topic/30/
http://pb.wtf/topic/122539/
ссылка
Администрация ресурса разрешает заливать скрины, постеры, картинки с этих хостингов:
fastpic
lostpic
firepic
directupload.
Запрещено заливать скриншоты на фотохостинги с оплатой за клики!
pb.wtf



08-03-2020 15:44 Дом с лилиями Скачать торрент  

Сидоров нетуpb.wtf



    Дорогой пользователь! Огромная просьба, поблагодарите релизера, оцените раздачу и оставьте свои комментарий, если Вы скачали Дом с лилиями через торрент бесплатно! Внесите свою лепту в развитие PiratBit!
    Комментировать посты могут только пользователи прошедшие не сложную регистрацию
    Показать сообщения:    

    Дом с лилиями через торрент
    Скачать бесплатно Дом с лилиями
    Дом с лилиями скачать торрент
    Дом с лилиями смотреть онлайн
    Cкачать фильм Дом с лилиями бесплатно
    Дом с лилиями скачать торрент в хорошем качестве
    Дом с лилиями смотреть онлайн бесплатно в хорошем качестве


    Вы не можете начинать темы
    Вы не можете отвечать на сообщения
    Вы не можете редактировать свои сообщения
    Вы не можете удалять свои сообщения
    Вы не можете голосовать в опросах
    Вы не можете прикреплять файлы к сообщениям
    Вы можете скачивать файлы