новый адрес пиратбит piratbit
Мега распродажа FORZA HORIZON 4 ULTIMATE+ВСЕ DLC+ОНЛАЙН всего за 499р. 349 руб. (супер цена). Внимание количество ограничено!!!

iTunes

1+1

iTunes

мы

iTunes

1

iTunes

Чернобыль

iTunes

Ральф против интернета

Лицензия

ПШазам

Лицензия

Игра престолов

Лицензия

30
pack

ВАЖНО

!!Акция!!

Alien_RageХит недели

RePack

Resident Evil 21

ИГРА 18+

pack

RePack

Metro:Exodus

!!Акция!!

Alien_Rage

RePack

fifa19

RePack

Assassins Creed: Odyssey

RePack

NEED FOR SPEED™ PAYBACK

3 сезон

9 сезон

Бесстыжие 9 сезон

Все сериалы

все сериалы на PB.wtf

RePack

FAR CRY 5
Ребята, катастрофически не хватает 1900р. для оплаты серверов за Октябрь (всвязи с блокировками трафик упал в 3 раза), 1-2р., выручайте.
  

Шаг вперёд: Всё или ничего / Step Up All In (Триш Си) [2014, драма, мелодрама, музыка, BDRip] DUB [iTunes] pb.wtf

Шаг вперёд: Всё или ничего через торрент pb.wtf

Размер: 2.18 GB | Добавлен: 10 мес. назад | Торрент скачан:43 раза
Скачать  

23-10-2014 10:21 Шаг вперёд: Всё или ничего Скачать торрент  

Шаг вперёд: Всё или ничего / Step Up All In
««Every step has led to this»»

Год выпуска: 2014
Страна: США
Жанр: драма, мелодрама, музыка

Продолжительность: 01:51:51
Перевод: Дублированный [iTunes]
Режиссер: Триш Си
В ролях:

Райан Гузман (Sean), Бриана Эвиган (Andie), Стивен Босс (Jason), Миша Гэбриел Хэмилтон (Eddy), Изабелла Мико (Alexxa Brava), Элисон Стоунер (Camille), Адам Севани (Moose), Стивен Стево Джонс (Jasper), Дэвид Шрейбман (Chad), Мари Кода (Jenny Kido), Кристофер Скотт (Hair), Луис Росадо (Monster)
Описание:
В переливающемся огнями Лас-Вегасе лучшие танцоры планеты сойдутся в батле, который решит все. Талантливый самоучка Шон и красотка Энди, мечтающие о славе и богатстве, примут участие в популярном реалити-шоу и бросят вызов «непобедимым» командам противников, а главное - самим себе. Смогут ли они преодолеть страх, пережить предательство и обуздать страсть, чтобы стать первыми и осуществить свои мечты?
Рейтинг:
rating
MPAA: PG-13 - Детям до 13 лет просмотр не желателен
Качество: BDRip
Формат: AVI
Видео: XviD, 704x400 (16:9), 1840 kbps, 23,976 fps, 0,273 bpp
Аудио №1: русский / AC3 / 5.1 / 48 kHz / 384 kbps / |Дубляж|
Аудио №2: английский / AC3 / 5.1 / 48 kHz / 448 kbps /
General
Complete name : D:\Shag.vpered.Vse.ili.nichego.2014.DUAL.BDRip.XviD.AC3.-HQCLUB.avi
Format : AVI
Format/Info : Audio Video Interleave
File size : 2.18 GiB
Duration : 1 h 51 min
Overall bit rate : 2 794 kb/s
Movie name : Шаг вперёд: Всё или ничего / Step Up All In (2014) BDRip
Director : sociolog_melvas
Genre : драма, мелодрама, музыка
Writing application : VirtualDubMod 1.5.10.2 (build 2540/release)
Copyright : HQCLUB
Comment : 03.02.2017

Video
ID : 0
Format : MPEG-4 Visual
Format profile : Advanced Simple@L5
Format settings, BVOP : 1
Format settings, QPel : No
Format settings, GMC : No warppoints
Format settings, Matrix : Custom
Codec ID : XVID
Codec ID/Hint : XviD
Duration : 1 h 51 min
Bit rate : 1 840 kb/s
Width : 704 pixels
Height : 400 pixels
Display aspect ratio : 16:9
Frame rate : 23.976 (24000/1001) FPS
Color space : YUV
Chroma subsampling : 4:2:0
Bit depth : 8 bits
Scan type : Progressive
Compression mode : Lossy
Bits/(Pixel*Frame) : 0.273
Stream size : 1.44 GiB (66%)
Writing library : XviD 65

Audio #1
ID : 1
Format : AC-3
Format/Info : Audio Coding 3
Mode extension : CM (complete main)
Format settings, Endianness : Big
Codec ID : 2000
Duration : 1 h 51 min
Bit rate mode : Constant
Bit rate : 384 kb/s
Channel(s) : 6 channels
Channel positions : Front: L C R, Side: L R, LFE
Sampling rate : 48.0 kHz
Frame rate : 31.250 FPS (1536 spf)
Compression mode : Lossy
Stream size : 307 MiB (14%)
Alignment : Split accross interleaves

Audio #2
ID : 2
Format : AC-3
Format/Info : Audio Coding 3
Mode extension : CM (complete main)
Format settings, Endianness : Big
Codec ID : 2000
Duration : 1 h 51 min
Bit rate mode : Constant
Bit rate : 448 kb/s
Channel(s) : 6 channels
Channel positions : Front: L C R, Side: L R, LFE
Sampling rate : 48.0 kHz
Frame rate : 31.250 FPS (1536 spf)
Compression mode : Lossy
Stream size : 358 MiB (16%)
Alignment : Split accross interleaves
скриншот   скриншот   скриншот  
pb.wtf



Скачать Шаг вперёд: Всё или ничего через торрент http://s020.radikal.ru/i723/1410/c6/6bc43a9374c0.jpg Скачать фильм Шаг вперёд: Всё или ничего через торрент бесплантно в хорошем качестве Описание: В переливающемся огнями Лас-Вегасе лучшие танцоры планеты сойдутся в батле, который решит все. Талантливый самоучка Шон и ... 9.5 10 78
Торрент: Зарегистрирован [2019-01-06 12:44] · скачан: 43 раз
Статус: √ проверено
Размер: 2.18 GB
Как cкачать? Как скачать Шаг вперёд: Всё или ничего через торрент | qTorrent

% Раздел Тема Автор DL S | L
Фильмы 2014 [DVDrip, WEB-DLRip, HDrip] [ 1.37 GB ] Шаг вперёд: Всё или ничего / Step Up All In [2014 музыка HDRip] VintMosina Скачать
2 | 0
Фильмы (Blu-ray, BD-Remux, HDDVD) [ 23.36 GB ] Шаг вперёд: Всё или ничего / Step Up All In [2014 музыка BD Remux - / ] _KaisiK_ Скачать
1 | 0
Видео для мобильных (3GP, MP4,AVI) [ 1.17 GB ] Шаг вперёд: Всё или ничего / Step Up All In [2014 музыка HDRip ] by Nikitun nikitun Скачать
1 | 0


Последний раз редактировалось: Ворон (2014-10-26 20:40), всего редактировалось 2 раз(а)


>> Регистрируемся здесь <<






Отзывы и комментарии о схеме читаем и пишем здесь: ---> Отзывы и комментарии о схеме

Новые благодарочки в телеграм довольных пользователей:
скриншот   скриншот   скриншот   скриншот   скриншот

09-11-2014 07:14 Шаг вперёд: Всё или ничего Скачать торрент  

Качаю, спасибо)pb.wtf



    Дорогой пользователь! Огромная просьба, поблагодарите релизера, оцените раздачу и оставьте свои комментарий, если Вы скачали Шаг вперёд: Всё или ничего через торрент бесплатно! Внесите свою лепту в развитие PiratBit!
    Комментировать посты могут только пользователи прошедшие не сложную регистрацию
    Показать сообщения:    

    Шаг вперёд: Всё или ничего через торрент
    Скачать бесплатно Шаг вперёд: Всё или ничего
    Шаг вперёд: Всё или ничего скачать торрент
    Шаг вперёд: Всё или ничего смотреть онлайн
    Cкачать фильм Шаг вперёд: Всё или ничего бесплатно
    Шаг вперёд: Всё или ничего скачать торрент в хорошем качестве
    Шаг вперёд: Всё или ничего смотреть онлайн бесплатно в хорошем качестве


    Вы не можете начинать темы
    Вы не можете отвечать на сообщения
    Вы не можете редактировать свои сообщения
    Вы не можете удалять свои сообщения
    Вы не можете голосовать в опросах
    Вы не можете прикреплять файлы к сообщениям
    Вы можете скачивать файлы