2 сезон

iTunes

1 сезон

1

iTunes

iTunes

iTunes

1 сезон

RePack

30

ИГРА 18+

pack

ВАЖНО

!!Акция!!

Alien_RageХит недели

RePack

MK11
pack

Забери бонус

RePack

jed

!!Акция!!

Alien_Rage

RePack

fifa19

RePack

Assassins Creed: Odyssey

RePack

NEED FOR SPEED™ PAYBACK

4 сезон

9 сезон

Бесстыжие 9 сезон

Все сериалы

все сериалы на PB.wtf

RePack

FAR CRY 5
  

Крупная рыба / Big Fish (Тим Бёртон) [2003, фэнтези, драма, приключения, BDRip 1080p] DUB, MVO, DVO, AVO, VO pb.wtf

Крупная рыба через торрент pb.wtf

Размер: 25.38 GB | Добавлен: 6 лет назад | Торрент скачан:32 раза
Скачать  

24-10-2014 06:20 Крупная рыба Скачать торрент  

Крупная рыба / Big Fish

Год выпуска: 2003
Страна: США
Жанр: фэнтези, драма, приключения
Продолжительность: 02:05:09
Перевод: дублированный, профессиональный многоголосый, профессиональный двухголосый, авторский, любительский одноголосый
Субтитры: русские, английские (все отдельно)

Режиссёр: Тим Бёртон

В ролях: Эван МакГрегор, Альберт Финни, Билли Крадап, Джессика Лэнг, Хелена Бонем Картер, Элисон Ломан, Роберт Гийом, Марион Котийяр, Мэттью МакГрори, Дэвид Денман, Мисси Пайл, Стив Бушеми, Дэнни ДеВито, Майли Сайрус

Описание: В основу этой приключенческой ленты положен роман Дэниела Уоллеса «Большая рыба: роман мифических пропорций». Умирает отец, о жизни которого сын хочет узнать как можно больше, собирая истории о нём. Сын пытается воссоздать ускользающую жизнь отца в серии легенд и мифов, которые тот придумывает на основе разрозненных фактов. Взлёты и падения в жизни человека в итоге предстают в неожиданном ракурсе...



Качество: BDRip 1080p Сравнение с исходником
Формат: MKV
Видео кодек: H.264
Видео: 1920x1040, 17.4 Mbps, 23.976 кадра/с, 0.363 bpp
Аудио 1: русский, AC3, 448 kbps, 6 ch, 48 kHz [дублированный]
Аудио 2: русский, DTS, 1509 kbps, 6 ch, 48 kHz [профессиональный многоголосый]
Аудио 3: русский, AC3, 448 kbps, 6 ch, 48 kHz [профессиональный двухголосый, Tycoon]
Аудио 4: русский, AC3, 448 kbps, 6 ch, 48 kHz [профессиональный двухголосый, Пётр Гланц и Инна Королёва]
Аудио 5: русский, DTS, 1509 kbps, 6 ch, 48 kHz [авторский, Андрей Гаврилов]
Аудио 6: русский, DTS, 1509 kbps, 6 ch, 48 kHz [авторский, Юрий Сербин]
Аудио 7: русский, DTS, 1509 kbps, 6 ch, 48 kHz [авторский, Михаил Чадов]
Аудио 8: русский, AC3, 448 kbps, 6 ch, 48 kHz [любительский одноголосый, Ронин]

Отдельные файлы
Аудио: русский, AC3, 448 kbps, 6 ch, 48 kHz [профессиональный многоголосый]
Аудио: русский, AC3, 448 kbps, 6 ch, 48 kHz [авторский, Андрей Гаврилов]
Аудио: русский, AC3, 448 kbps, 6 ch, 48 kHz [авторский, Юрий Сербин]
Аудио: русский, AC3, 448 kbps, 6 ch, 48 kHz [авторский, Михаил Чадов]
Аудио: английский, DTS, 1509 kbps, 6 ch, 48 kHz [оригинал]

Автор рипа msltel
Жорж, 2005 год
Номинации (1):
Лучший развлекательный фильм

Оскар, 2004 год
Номинации (1):
Лучший оригинальный саундтрек

Золотой глобус, 2004 год
Номинации (4):
Лучший фильм (комедия или мюзикл)
Лучшая мужская роль второго плана (Альберт Финни)
Лучшая песня — «Man of the Hour»
Лучший саундтрек

Британская академия, 2004 год
Номинации (7):
Лучший фильм
Лучшая мужская роль второго плана (Альберт Финни)
Лучший адаптированный сценарий
Лучшие визуальные эффекты
Лучший грим/прически
Лучшая работа художника-постановщика
Премия имени Дэвида Лина за достижения в режиссуре (Тим Бёртон)

Сатурн, 2004 год
Номинации (2):
Лучший фэнтези-фильм
Лучший актер (Альберт Финни)
frame I:1330 Avg QP:16.36 size:237059
frame P:32833 Avg QP:17.24 size:157939
frame B:145877 Avg QP:19.46 size: 77461

Общее
Полное имя : D:VideoKrupnaja ryba.2003.BDRip.1080pKrupnaja ryba.2003.AVO.rus.А.Гаврилов.ac3
Формат : AC-3
Формат/Информация : Audio Coding 3
Размер файла : 401 Мбайт
Продолжительность : 2 ч. 5 м.
Режим общего битрейта : Постоянный
Общий поток : 448 Кбит/сек

Аудио
Формат : AC-3
Формат/Информация : Audio Coding 3
Расширение режима : CM (complete main)
Параметр Endianness формата : Big
Продолжительность : 2 ч. 5 м.
Вид битрейта : Постоянный
Битрейт : 448 Кбит/сек
Каналы : 6 каналов
Расположение каналов : Front: L C R, Side: L R, LFE
Частота : 48,0 КГц
Битовая глубина : 16 бит
Метод сжатия : С потерями
Размер потока : 401 Мбайт (100%)

Общее
Полное имя : D:VideoKrupnaja ryba.2003.BDRip.1080pKrupnaja ryba.2003.AVO.rus.М.Чадов.ac3
Формат : AC-3
Формат/Информация : Audio Coding 3
Размер файла : 401 Мбайт
Продолжительность : 2 ч. 5 м.
Режим общего битрейта : Постоянный
Общий поток : 448 Кбит/сек

Аудио
Формат : AC-3
Формат/Информация : Audio Coding 3
Расширение режима : CM (complete main)
Параметр Endianness формата : Big
Продолжительность : 2 ч. 5 м.
Вид битрейта : Постоянный
Битрейт : 448 Кбит/сек
Каналы : 6 каналов
Расположение каналов : Front: L C R, Side: L R, LFE
Частота : 48,0 КГц
Битовая глубина : 16 бит
Метод сжатия : С потерями
Размер потока : 401 Мбайт (100%)

Общее
Полное имя : D:VideoKrupnaja ryba.2003.BDRip.1080pKrupnaja ryba.2003.AVO.rus.Ю.Сербин.ac3
Формат : AC-3
Формат/Информация : Audio Coding 3
Размер файла : 401 Мбайт
Продолжительность : 2 ч. 5 м.
Режим общего битрейта : Постоянный
Общий поток : 448 Кбит/сек

Аудио
Формат : AC-3
Формат/Информация : Audio Coding 3
Расширение режима : CM (complete main)
Параметр Endianness формата : Big
Продолжительность : 2 ч. 5 м.
Вид битрейта : Постоянный
Битрейт : 448 Кбит/сек
Каналы : 6 каналов
Расположение каналов : Front: L C R, Side: L R, LFE
Частота : 48,0 КГц
Битовая глубина : 16 бит
Метод сжатия : С потерями
Размер потока : 401 Мбайт (100%)

Общее
Уникальный идентификатор : 228890287600030183339516336029374005240 (0xAC32AA778F2FA44EAA7704753B5EBFF8)
Полное имя : D:VideoKrupnaja ryba.2003.BDRip.1080pKrupnaja ryba.2003.BDRip.1080p.mkv
Формат : Matroska
Версия формата : Version 4 / Version 2
Размер файла : 22,5 Гбайт
Продолжительность : 2 ч. 5 м.
Общий поток : 25,7 Мбит/сек
Дата кодирования : UTC 2014-10-23 15:38:39
Программа кодирования : mkvmerge v6.9.1 ('Blue Panther') 64bit built on Apr 18 2014 18:23:38
Библиотека кодирования : libebml v1.3.0 + libmatroska v1.4.1

Видео
Идентификатор : 1
Формат : AVC
Формат/Информация : Advanced Video Codec
Профиль формата : High@L4.1
Параметр CABAC формата : Да
Параметр ReFrames формата : 4 кадра
Идентификатор кодека : V_MPEG4/ISO/AVC
Продолжительность : 2 ч. 5 м.
Битрейт : 17,4 Мбит/сек
Ширина : 1920 пикселей
Высота : 1040 пикселей
Соотношение сторон : 1,85:1
Режим частоты кадров : Постоянный
Частота кадров : 23,976 кадра/сек
Цветовое пространство : YUV
Субдискретизация насыщенности : 4:2:0
Битовая глубина : 8 бит
Тип развёртки : Прогрессивная
Бит/(Пиксели*Кадры) : 0.363
Размер потока : 15,2 Гбайт (68%)
Заголовок : BDRip -- STarankov
Библиотека кодирования : x264 core 142 r2431 ac76440
Настройки программы : cabac=1 / ref=4 / deblock=1:-1:-1 / analyse=0x3:0x113 / me=umh / subme=10 / psy=1 / psy_rd=1.00:0.15 / mixed_ref=1 / me_range=32 / chroma_me=1 / trellis=2 / 8x8dct=1 / cqm=0 / deadzone=21,11 / fast_pskip=1 / chroma_qp_offset=-3 / threads=6 / lookahead_threads=1 / sliced_threads=0 / nr=0 / decimate=1 / interlaced=0 / bluray_compat=0 / constrained_intra=0 / bframes=12 / b_pyramid=2 / b_adapt=2 / b_bias=0 / direct=3 / weightb=1 / open_gop=0 / weightp=2 / keyint=230 / keyint_min=23 / scenecut=40 / intra_refresh=0 / rc_lookahead=40 / rc=crf / mbtree=0 / crf=18.0 / qcomp=0.60 / qpmin=0 / qpmax=69 / qpstep=4 / vbv_maxrate=50000 / vbv_bufsize=62500 / crf_max=0.0 / nal_hrd=none / filler=0 / ip_ratio=1.40 / pb_ratio=1.30 / aq=1:1.00
Язык : English
Default : Да
Forced : Нет

Аудио #1
Идентификатор : 2
Формат : AC-3
Формат/Информация : Audio Coding 3
Расширение режима : CM (complete main)
Параметр Endianness формата : Big
Идентификатор кодека : A_AC3
Продолжительность : 2 ч. 5 м.
Вид битрейта : Постоянный
Битрейт : 448 Кбит/сек
Каналы : 6 каналов
Расположение каналов : Front: L C R, Side: L R, LFE
Частота : 48,0 КГц
Битовая глубина : 16 бит
Метод сжатия : С потерями
Размер потока : 401 Мбайт (2%)
Заголовок : DUB
Язык : Russian
Default : Да
Forced : Нет

Аудио #2
Идентификатор : 3
Формат : DTS
Формат/Информация : Digital Theater Systems
Режим : 16
Параметр Endianness формата : Big
Идентификатор кодека : A_DTS
Продолжительность : 2 ч. 5 м.
Вид битрейта : Постоянный
Битрейт : 1510 Кбит/сек
Каналы : 6 каналов
Расположение каналов : Front: L C R, Side: L R, LFE
Частота : 48,0 КГц
Битовая глубина : 24 бит
Метод сжатия : С потерями
Размер потока : 1,32 Гбайт (6%)
Заголовок : MVO
Язык : Russian
Default : Нет
Forced : Нет

Аудио #3
Идентификатор : 4
Формат : AC-3
Формат/Информация : Audio Coding 3
Расширение режима : CM (complete main)
Параметр Endianness формата : Big
Идентификатор кодека : A_AC3
Продолжительность : 2 ч. 5 м.
Вид битрейта : Постоянный
Битрейт : 448 Кбит/сек
Каналы : 6 каналов
Расположение каналов : Front: L C R, Side: L R, LFE
Частота : 48,0 КГц
Битовая глубина : 16 бит
Метод сжатия : С потерями
Размер потока : 401 Мбайт (2%)
Заголовок : DVO (Tycoon)
Язык : Russian
Default : Нет
Forced : Нет

Аудио #4
Идентификатор : 5
Формат : AC-3
Формат/Информация : Audio Coding 3
Расширение режима : CM (complete main)
Параметр Endianness формата : Big
Идентификатор кодека : A_AC3
Продолжительность : 2 ч. 5 м.
Вид битрейта : Постоянный
Битрейт : 448 Кбит/сек
Каналы : 6 каналов
Расположение каналов : Front: L C R, Side: L R, LFE
Частота : 48,0 КГц
Битовая глубина : 16 бит
Метод сжатия : С потерями
Размер потока : 401 Мбайт (2%)
Заголовок : DVO (Пётр Гланц и Инна Королёва)
Язык : Russian
Default : Нет
Forced : Нет

Аудио #5
Идентификатор : 6
Формат : DTS
Формат/Информация : Digital Theater Systems
Режим : 16
Параметр Endianness формата : Big
Идентификатор кодека : A_DTS
Продолжительность : 2 ч. 5 м.
Вид битрейта : Постоянный
Битрейт : 1509 Кбит/сек
Каналы : 6 каналов
Расположение каналов : Front: L C R, Side: L R, LFE
Частота : 48,0 КГц
Битовая глубина : 16 бит
Метод сжатия : С потерями
Размер потока : 1,32 Гбайт (6%)
Заголовок : AVO (Андрей Гаврилов)
Язык : Russian
Default : Нет
Forced : Нет

Аудио #6
Идентификатор : 7
Формат : DTS
Формат/Информация : Digital Theater Systems
Режим : 16
Параметр Endianness формата : Big
Идентификатор кодека : A_DTS
Продолжительность : 2 ч. 5 м.
Вид битрейта : Постоянный
Битрейт : 1509 Кбит/сек
Каналы : 6 каналов
Расположение каналов : Front: L C R, Side: L R, LFE
Частота : 48,0 КГц
Битовая глубина : 24 бит
Метод сжатия : С потерями
Размер потока : 1,32 Гбайт (6%)
Заголовок : AVO (Юрий Сербин)
Язык : Russian
Default : Нет
Forced : Нет

Аудио #7
Идентификатор : 8
Формат : DTS
Формат/Информация : Digital Theater Systems
Режим : 16
Параметр Endianness формата : Big
Идентификатор кодека : A_DTS
Продолжительность : 2 ч. 5 м.
Вид битрейта : Постоянный
Битрейт : 1510 Кбит/сек
Каналы : 6 каналов
Расположение каналов : Front: L C R, Side: L R, LFE
Частота : 48,0 КГц
Битовая глубина : 24 бит
Метод сжатия : С потерями
Размер потока : 1,32 Гбайт (6%)
Заголовок : AVO (Михаил Чадов)
Язык : Russian
Default : Нет
Forced : Нет

Аудио #8
Идентификатор : 9
Формат : AC-3
Формат/Информация : Audio Coding 3
Расширение режима : CM (complete main)
Параметр Endianness формата : Big
Идентификатор кодека : A_AC3
Продолжительность : 2 ч. 5 м.
Вид битрейта : Постоянный
Битрейт : 448 Кбит/сек
Каналы : 6 каналов
Расположение каналов : Front: L C R, Side: L R, LFE
Частота : 48,0 КГц
Битовая глубина : 16 бит
Метод сжатия : С потерями
Размер потока : 401 Мбайт (2%)
Заголовок : VO (Ронин, любительский одноголосый)
Язык : Russian
Default : Нет
Forced : Нет

Общее
Полное имя : D:VideoKrupnaja ryba.2003.BDRip.1080pKrupnaja ryba.2003.eng.srt
Формат : SubRip
Размер файла : 89,1 Кбайт

Текст
Формат : SubRip
Метод сжатия : Без потерь

Общее
Полное имя : D:VideoKrupnaja ryba.2003.BDRip.1080pKrupnaja ryba.2003.MVO.rus.ac3
Формат : AC-3
Формат/Информация : Audio Coding 3
Размер файла : 401 Мбайт
Продолжительность : 2 ч. 5 м.
Режим общего битрейта : Постоянный
Общий поток : 448 Кбит/сек

Аудио
Формат : AC-3
Формат/Информация : Audio Coding 3
Расширение режима : CM (complete main)
Параметр Endianness формата : Big
Продолжительность : 2 ч. 5 м.
Вид битрейта : Постоянный
Битрейт : 448 Кбит/сек
Каналы : 6 каналов
Расположение каналов : Front: L C R, Side: L R, LFE
Частота : 48,0 КГц
Битовая глубина : 16 бит
Метод сжатия : С потерями
Размер потока : 401 Мбайт (100%)

Общее
Полное имя : D:VideoKrupnaja ryba.2003.BDRip.1080pKrupnaja ryba.2003.Original.eng.dts
Формат : DTS
Формат/Информация : Digital Theater Systems
Размер файла : 1,32 Гбайт
Продолжительность : 2 ч. 5 м.
Режим общего битрейта : Постоянный
Общий поток : 1510 Кбит/сек

Аудио
Формат : DTS
Формат/Информация : Digital Theater Systems
Режим : 16
Параметр Endianness формата : Big
Продолжительность : 2 ч. 5 м.
Вид битрейта : Постоянный
Битрейт : 1510 Кбит/сек
Каналы : 6 каналов
Расположение каналов : Front: L C R, Side: L R, LFE
Частота : 48,0 КГц
Битовая глубина : 24 бит
Метод сжатия : С потерями
Размер потока : 1,32 Гбайт

Общее
Полное имя : D:VideoKrupnaja ryba.2003.BDRip.1080pKrupnaja ryba.2003.rus.srt
Формат : SubRip
Размер файла : 110 Кбайт

Текст
Формат : SubRip
Метод сжатия : Без потерь
pb.wtf



Скачать Крупная рыба через торрент http://i67.fastpic.ru/big/2014/1022/f8/f20df21520d273ae29b31663fe266bf8.jpg Скачать фильм Крупная рыба через торрент бесплантно в хорошем качестве Описание: В основу этой приключенческой ленты положен роман Дэниела Уоллеса «Большая рыба: роман мифических пропорций». Умирает отец, о ... 9 10 4
Торрент: Зарегистрирован [2014-10-24 06:20] · скачан: 32 раз
Статус: √ проверено
Размер: 25.38 GB
Как cкачать? Как скачать Крупная рыба через торрент | qTorrent

% Раздел Тема Автор DL S | L
Фильмы до 2000 г. [ 6.19 GB ] Крупная рыба / Big Fish [2003 BDRip-AVC] DUB MVO DVO AVO VO msltel Скачать
1 | 0
Фильмы [HD 720p, 1080p] (Хороший звук DUB, MVO) [ 15.16 GB ] Крупная рыба / Big Fish [2003 BDRip 720p] DUB MVO DVO AVO VO msltel Скачать
1 | 0

28-11-2019 20:33  

Отключить всю рекламу на сайте

    Дорогой пользователь! Огромная просьба, поблагодарите релизера, оцените раздачу и оставьте свои комментарий, если Вы скачали Крупная рыба через торрент бесплатно! Внесите свою лепту в развитие PiratBit!
    Комментировать посты могут только пользователи прошедшие не сложную регистрацию
    Показать сообщения:    

    Крупная рыба через торрент
    Скачать бесплатно Крупная рыба
    Крупная рыба скачать торрент
    Крупная рыба смотреть онлайн
    Cкачать фильм Крупная рыба бесплатно
    Крупная рыба скачать торрент в хорошем качестве
    Крупная рыба смотреть онлайн бесплатно в хорошем качестве


    Вы не можете начинать темы
    Вы не можете отвечать на сообщения
    Вы не можете редактировать свои сообщения
    Вы не можете удалять свои сообщения
    Вы не можете голосовать в опросах
    Вы не можете прикреплять файлы к сообщениям
    Вы можете скачивать файлы