2 сезон

iTunes

MVO

1

2 сезон

iTunes

iTunes

1 сезон

RePack

30

Ultimate

ВАЖНО

ИГРА 18+

pack

RePack

MK11
pack

Легкие деньги

RePack

jed

RePack

fifa19

RePack

RDR2

RePack

NEED FOR SPEED™ PAYBACK

4 сезон

9 сезон

Бесстыжие 9 сезон

Все сериалы

все сериалы на PB.wtf

RePack

FAR CRY 5

Anonymous, добрый вечер, мы не успеваем собрать деньги на оплату серверов за декабрь и январь, помогите нам пожалуйста в это трудное время. В качестве благодарности мы отключим Вам всю рекламу на сайте (укажите свой ник в строку Ваше имя)!

×
  
Magnet ссылка

Судебное обвинение Кейси Энтони / Prosecuting Casey Anthony (Питер Уэрнер) [2013 г., драма, HDTVRip, Дубляж] pb.wtf

Судебное обвинение Кейси Энтони через торрент pb.wtf

Размер: 1.39 GB | Добавлен: 6 лет 3 мес. назад | Торрент скачан:187 раз
Скачать  

24-10-2014 14:41 Судебное обвинение Кейси Энтони Скачать торрент  

Судебное обвинение Кейси Энтони / Prosecuting Casey Anthony
Год выпуска: 2013
Страна: Канада, США
Жанр: драма
Продолжительность: 01:26:18
Перевод: Дубляж

Режиссер: Питер Уэрнер
Продюссер: Ким Тодд, Жан Абунадер, Элисон Кросс
Сценарий: Элисон Кросс, Jeff Ashton
Премьера в мире: 19 января 2013

В ролях: Роб Лоу, Элизабет Митчелл, Оскар Нунез, Мариса Рамирес, Кевин Данн, Virginia Welch, Дэвид Ричмонд-Пек, Марина Стивенсон Керр, Тоня Ли Уильямс, Филип Акин

Описание: Прокурор Джефф Эштон перед выходом на пенсию берется за дело некоей Кейси Энтони, матери, обвиняемой в убийстве своей дочери Кейли. Он считает, что у него есть все, что нужно, чтобы уличить Кейси в преступлении. Несмотря на это, адвокат женщины, Хосе Баэз, полагает, что у него есть возможность сделать так, что жюри присяжных оправдает ее.

Качество: HDTVRip
Формат: AVI
Видео кодек: XviD
Аудио кодек: AC3
Видео: 720x400 (1.80:1), 25 fps, XviD build 50 ~2099 kbps avg, 0.29 bit/pixel
Аудио: 48 kHz, AC3 Dolby Digital, 2/0 (L,R) ch, ~192 kbps

Format : AVI
Format/Info : Audio Video Interleave
File size : 1.39 GiB
Duration : 1h 26mn
Overall bit rate : 2 302 Kbps
Movie name : Судебное обвинение Кейси Энтони - Prosecuting Casey Anthony [Rip by Ledy_X]
Director : Rip by Ledy_X
Writing application : VirtualDubMod 1.5.10.3 | www.virtualdub-fr.org || (build 2550/release)
Copyright : Edich2
Comment : RuTracker.org

Video
ID : 0
Format : MPEG-4 Visual
Format profile : Advanced Simple@L5
Format settings, BVOP : 2
Format settings, QPel : No
Format settings, GMC : No warppoints
Format settings, Matrix : Custom
Codec ID : XVID
Codec ID/Hint : XviD
Duration : 1h 26mn
Bit rate : 2 100 Kbps
Width : 720 pixels
Height : 400 pixels
Display aspect ratio : 16:9
Frame rate : 25.000 fps
Color space : YUV
Chroma subsampling : 4:2:0
Bit depth : 8 bits
Scan type : Progressive
Compression mode : Lossy
Bits/(Pixel*Frame) : 0.292
Stream size : 1.27 GiB (91%)
Writing library : XviD 1.2.1 (UTC 2008-12-04)

Audio
ID : 1
Format : AC-3
Format/Info : Audio Coding 3
Mode extension : CM (complete main)
Format settings, Endianness : Big
Codec ID : 2000
Duration : 1h 26mn
Bit rate mode : Constant
Bit rate : 192 Kbps
Channel(s) : 2 channels
Channel positions : Front: L R
Sampling rate : 48.0 KHz
Bit depth : 16 bits
Compression mode : Lossy
Stream size : 119 MiB (8%)
Alignment : Split accross interleaves
Interleave, duration : 40 ms (1.00 video frame)
Interleave, preload duration : 500 ms

pb.wtf



Скачать Судебное обвинение Кейси Энтони через торрент http://i67.fastpic.ru/big/2014/1024/51/06240fb5c208b12566c5540283546851.png Скачать фильм Судебное обвинение Кейси Энтони через торрент бесплантно в хорошем качестве Описание: Прокурор Джефф Эштон перед выходом на пенсию берется за дело некоей Кейси Энтони, матери, обвиняемой в убийстве своей дочери ... 10 10 5
Торрент: Зарегистрирован [2014-10-24 14:41] · скачан: 187 раз
Статус: √ проверено
Размер: 1.39 GB
Как cкачать? Как скачать Судебное обвинение Кейси Энтони через торрент | UTorrent

28-11-2019 20:33  

Отключить всю рекламу на сайте

    Дорогой пользователь! Огромная просьба, поблагодарите релизера, оцените раздачу и оставьте свои комментарий, если Вы скачали Судебное обвинение Кейси Энтони через торрент бесплатно! Внесите свою лепту в развитие PiratBit!
    Комментировать посты могут только пользователи прошедшие не сложную регистрацию
    Показать сообщения:    

    Судебное обвинение Кейси Энтони через торрент
    Скачать бесплатно Судебное обвинение Кейси Энтони
    Судебное обвинение Кейси Энтони скачать торрент
    Судебное обвинение Кейси Энтони смотреть онлайн
    Cкачать фильм Судебное обвинение Кейси Энтони бесплатно
    Судебное обвинение Кейси Энтони скачать торрент в хорошем качестве
    Судебное обвинение Кейси Энтони смотреть онлайн бесплатно в хорошем качестве


    Вы не можете начинать темы
    Вы не можете отвечать на сообщения
    Вы не можете редактировать свои сообщения
    Вы не можете удалять свои сообщения
    Вы не можете голосовать в опросах
    Вы не можете прикреплять файлы к сообщениям
    Вы можете скачивать файлы