Мега распродажа FORZA HORIZON 4 ULTIMATE+ВСЕ DLC+ОНЛАЙН всего за 499р. 349 руб. (супер цена). Внимание количество ограничено!!!

iTunes

1+1

iTunes

мы

iTunes

1

1 сезон

Чернобыль

1 сезон

Ральф против интернета

Лицензия

ПШазам

8 сезон

Игра престолов

Лицензия

30
pack

ВАЖНО

!!Акция!!

Alien_RageХит недели

RePack

Resident Evil 21

ИГРА 18+

pack

RePack

Metro:Exodus

!!Акция!!

Alien_Rage

RePack

fifa19

RePack

Assassins Creed: Odyssey

RePack

NEED FOR SPEED™ PAYBACK

3 сезон

9 сезон

Бесстыжие 9 сезон

Все сериалы

все сериалы на PB.wtf

RePack

FAR CRY 5
Ребята, катастрофически не хватает 2730р. для оплаты серверов за ИЮНЬ (всвязи с блокировками трафик упал в 3 раза), 1-2р., выручайте.
  

Танцующая в темноте / Dancer in the Dark (Ларс фон Триер) [2000 г., мюзикл, драма, криминал, HDRip, Дубляж] pb.wtf

Танцующая в темноте через торрент pb.wtf

Раздают: 1 [ 0 KB/s ]
Размер: 1.45 GB | Добавлен: 4 года 8 мес. назад | Торрент скачан:121 раз
Скачать  

24-10-2014 15:00 Танцующая в темноте Скачать торрент  

Танцующая в темноте / Dancer in the Dark
Год выпуска: 2000
Страна: Дания, Швеция, США, Аргентина, Великобритания, Германия, Исландия, Испания, Италия, Нидерланды, Норвегия, Финляндия, Франция
Жанр: мюзикл, драма, криминал
Продолжительность: 02:20:17
Перевод: Дубляж

Режиссер: Ларс фон Триер
Продюссер: Вибеке Винделов, Мальте Форселл, Фридрик Тоур Фридрикссон
Сценарий: Ларс фон Триер
Бюджет: $12 800 000
Премьера в мире: 17 мая 2000

IMDB 8.00 (67 196)


В ролях: Бьорк, Катрин Денёв, Дэвид Морс, Петер Стормаре, Джоэл Грей, Кэра Сеймур, Владика Костич, Жан-Марк Барр, Винсент Пэтерсон, Шиван Фэллон, Виктория Толстоганова, Анна Каменкова, Андрей Мартынов, Александр Клюквин, Александр Новиков

Описание: Знаете ли Вы, что такое камера обскура? Это пропасть, обрывающая мир солнечного света и теней и ввергающая в царство мрачной, черной пустоты. Отчаяние, страх, недоумение и... надежда, ведь надежда, как известно, всегда умирает последней. Или вовсе не умирает... И музыка, звучащая отовсюду.

Качество: HDRip
Формат: AVI
Видео кодек: XviD
Аудио кодек: AC3
Видео: XviD, 1277 Кбит/с, 704x304, 23.976 fps
Аудио: AC3, 2 ch, 192 Кбит/с, 48.0 KHz
General
Complete name : /home/sb1855/files/Dancer.in.the.Dark.2000_HDRip__[scarabey.org].avi
Format : AVI
Format/Info : Audio Video Interleave
File size : 1.45 GiB
Duration : 2h 20mn
Overall bit rate : 1 479 Kbps
Writing application : VirtualDubMod 1.5.10.3 | www.virtualdub-fr.org || (build 2550/release)
Writing library : VirtualDubMod build 2550/release

Video
ID : 0
Format : MPEG-4 Visual
Format profile : Advanced Simple@L5
Format settings, BVOP : 1
Format settings, QPel : No
Format settings, GMC : No warppoints
Format settings, Matrix : Custom
Codec ID : XVID
Codec ID/Hint : XviD
Duration : 2h 20mn
Bit rate : 1 278 Kbps
Width : 704 pixels
Height : 304 pixels
Display aspect ratio : 2.35:1
Frame rate : 23.976 fps
Color space : YUV
Chroma subsampling : 4:2:0
Bit depth : 8 bits
Scan type : Progressive
Compression mode : Lossy
Bits/(Pixel*Frame) : 0.249
Stream size : 1.25 GiB (86%)
Writing library : XviD 1.2.1 (UTC 2008-12-04)

Audio
ID : 1
Format : AC-3
Format/Info : Audio Coding 3
Mode extension : CM (complete main)
Format settings, Endianness : Big
Codec ID : 2000
Duration : 2h 20mn
Bit rate mode : Constant
Bit rate : 192 Kbps
Channel(s) : 2 channels
Channel positions : Front: L R
Sampling rate : 48.0 KHz
Bit depth : 16 bits
Compression mode : Lossy
Stream size : 193 MiB (13%)
Alignment : Split accross interleaves
Interleave, duration : 42 ms (1.00 video frame)
Interleave, preload duration : 500 ms

pb.wtf



Скачать Танцующая в темноте через торрент http://i64.fastpic.ru/big/2014/1024/57/6f02e553f22f503adcf4cb5f85003657.png Скачать фильм Танцующая в темноте через торрент бесплантно в хорошем качестве Описание: Знаете ли Вы, что такое камера обскура? Это пропасть, обрывающая мир солнечного света и теней и ввергающая в царство мрачной, ... 10 10 5
Торрент: Зарегистрирован [2014-10-24 15:00] · скачан: 121 раз
Статус: √ проверено
Размер: 1.45 GB
Как cкачать? Как скачать Танцующая в темноте через торрент | qTorrent


>> Регистрируемся здесь <<






Отзывы и комментарии о схеме читаем и пишем здесь: ---> Отзывы и комментарии о схеме

Новые благодарочки в телеграм довольных пользователей:
скриншот   скриншот   скриншот   скриншот   скриншот

24-10-2014 17:16 Танцующая в темноте Скачать торрент  

Говорят, фильм очень тяжёлый. Сам не смотрел, да и Ларс не совсем моёpb.wtf



25-12-2014 17:08 Танцующая в темноте Скачать торрент  

Да, фильм тяжелый, но посмотреть нада.pb.wtf



    Дорогой пользователь! Огромная просьба, поблагодарите релизера, оцените раздачу и оставьте свои комментарий, если Вы скачали Танцующая в темноте через торрент бесплатно! Внесите свою лепту в развитие PiratBit!
    Комментировать посты могут только пользователи прошедшие не сложную регистрацию
    Показать сообщения:    

    Танцующая в темноте через торрент
    Скачать бесплатно Танцующая в темноте
    Танцующая в темноте скачать торрент
    Танцующая в темноте смотреть онлайн
    Cкачать фильм Танцующая в темноте бесплатно
    Танцующая в темноте скачать торрент в хорошем качестве
    Танцующая в темноте смотреть онлайн бесплатно в хорошем качестве


    Вы не можете начинать темы
    Вы не можете отвечать на сообщения
    Вы не можете редактировать свои сообщения
    Вы не можете удалять свои сообщения
    Вы не можете голосовать в опросах
    Вы не можете прикреплять файлы к сообщениям
    Вы можете скачивать файлы