2 сезон

iTunes

MVO

1

2 сезон

iTunes

iTunes

1 сезон

RePack

30

Новинка

ВАЖНО

ИГРА 18+

pack

RePack

MK11
pack

Легкие деньги

RePack

jed

RePack

fifa19

RePack

RDR2

RePack

NEED FOR SPEED™ PAYBACK

4 сезон

9 сезон

Бесстыжие 9 сезон

Все сериалы

все сериалы на PB.wtf

RePack

FAR CRY 5

Anonymous, доброй ночи, мы не успеваем собрать деньги на оплату серверов за декабрь и январь, помогите нам пожалуйста в это трудное время. В качестве благодарности мы отключим Вам всю рекламу на сайте (укажите свой ник в строку Ваше имя)!

×
  
Magnet ссылка

Рога / Horns (Александр Ажа / Alexandre Aja) [2013, США, Канада, фэнтези, триллер, драма, WEB-DLRip-AVC,] Авторский (одноголосый Алексей Матвеев aka "Doctor Joker) От R.G. PiratFilms pb.wtf

Рога через торрент pb.wtf

Размер: 1.41 GB | Добавлен: 6 лет 3 мес. назад | Торрент скачан:1013 раз
Скачать  

08-10-2014 15:24 Рога Скачать торрент  

Рога / Horns
Любовь больно, как ад


Год выпуска: 2013
Страна: США, Канада
Жанр: фэнтези, триллер, драма, ужасы

Продолжительность: 01:59:55
Перевод: Авторский (одноголосый Алексей Матвеев aka "Doctor Joker)
Субтитры: Нет
Режиссер: Александр Ажа / Alexandre Aja
В ролях:

Дэниэл Рэдклифф (Ig Perrish), Джуно Темпл (Merrin Williams), Макс Мингелла (Lee Tourneau), Джо Андерсон (Terry Perrish), Келли Гарнер (Glenna Shepherd), Джеймс Римар (Derrick Perrish), Кэтлин Куинлен (Lydia Perrish), Хэзер Грэм (Veronica), Дэвид Морс (Dale Williams), Сабрина Карпентер (Young Merrin), Дилан Шмид (Lee at 13), Лэйн МакНил (Young Glenna)
Описание:
История простого американского парня по имени Иг Перриш, который просыпается рано утром с диким похмельем и обнаруживает, что у него на голове выросли настоящие рога.
Вместе с рогами у героя появляется еще одно дьявольское качество: в присутствии Перриша люди начинают говорить то, что думают на самом деле, и все грязные секреты оказываются на поверхности. Теперь Иг может узнать, кто на самом деле убил его девушку, поскольку в этом преступлении обвиняют его самого, хоть и бездоказательно.
Мировая премьера: 6 сентября 2013
Релиз от:
    Качество: WEB-DLRip-AVC (исх.WEB-DLRip 720р)
    Формат: MKV
    Видео кодек: AVC
    Аудио кодек:AC3
    Видео: AVC, 1024x426 (2.40:1), 1296 kbps, 23,976 fps, 0,124 bpp
    Аудио: AC3 / 5.1 / 48 kHz / 384 kbps / 16 bit


Код:

---[Information] [08.10.2014 2:22:37] x264 [info]: frame I:1559  Avg QP:15.35  size: 59211  PSNR Mean Y:48.35 U:51.08 V:50.71 Avg:48.98 Global:48.59
---[Information] [08.10.2014 2:22:37] x264 [info]: frame P:45569 Avg QP:18.46  size: 13986  PSNR Mean Y:45.86 U:49.90 V:49.41 Avg:46.68 Global:46.12
---[Information] [08.10.2014 2:22:37] x264 [info]: frame B:125391 Avg QP:21.41  size:  3469  PSNR Mean Y:45.61 U:49.72 V:49.20 Avg:46.45 Global:45.81
---[Information] [08.10.2014 2:22:37] x264 [info]: consecutive B-frames:  2.5%  4.8%  3.7% 77.1%  3.4%  4.7%  0.6%  2.8%  0.4%

Код:

General
Unique ID                                : 174734348207817951746777373341615669280 (0x83749C819B54E306A322FC1CB3A44020)
Complete name                            : D:\рипы От R.G. PiratFilms\R0g4.2013.WEB DLRip-AVC.by.White Smoke.R.G.PiratFilms.mkv
Format                                   : Matroska
Format version                           : Version 4 / Version 2
File size                                : 1.41 GiB
Duration                                 : 1h 59mn
Overall bit rate                         : 1 680 Kbps
Movie name                               : RARBG.COM - Horns.2013.720p.WEB-DL.DD5.1.H264-RARBG
Encoded date                             : UTC 2014-10-08 03:10:00
Writing application                      : mkvmerge v6.8.0 ('Theme for Great Cities') 64bit built on Mar  2 2014 21:34:26
Writing library                          : libebml v1.3.0 + libmatroska v1.4.1

Video
ID                                       : 1
Format                                   : AVC
Format/Info                              : Advanced Video Codec
Format profile                           : High@L4.1
Format settings, CABAC                   : Yes
Format settings, ReFrames                : 12 frames
Codec ID                                 : V_MPEG4/ISO/AVC
Duration                                 : 1h 59mn
Bit rate                                 : 1 296 Kbps
Width                                    : 1 024 pixels
Height                                   : 426 pixels
Display aspect ratio                     : 2.40:1
Frame rate                               : 23.976 fps
Color space                              : YUV
Chroma subsampling                       : 4:2:0
Bit depth                                : 8 bits
Scan type                                : Progressive
Bits/(Pixel*Frame)                       : 0.124
Stream size                              : 1.06 GiB (75%)
Writing library                          : x264 core 142 r2431 ac76440
Encoding settings                        : cabac=1 / ref=12 / deblock=1:-3:-3 / analyse=0x3:0x113 / me=umh / subme=9 / psy=1 / psy_rd=1.00:0.00 / mixed_ref=1 / me_range=32 / chroma_me=1 / trellis=1 / 8x8dct=1 / cqm=0 / deadzone=21,11 / fast_pskip=1 / chroma_qp_offset=-2 / threads=12 / lookahead_threads=2 / sliced_threads=0 / nr=0 / decimate=1 / interlaced=0 / bluray_compat=0 / constrained_intra=0 / bframes=8 / b_pyramid=2 / b_adapt=2 / b_bias=8 / direct=1 / weightb=0 / open_gop=0 / weightp=2 / keyint=240 / keyint_min=23 / scenecut=40 / intra_refresh=0 / rc_lookahead=40 / rc=2pass / mbtree=1 / bitrate=1296 / ratetol=1.0 / qcomp=0.65 / qpmin=0 / qpmax=69 / qpstep=4 / cplxblur=20.0 / qblur=0.5 / ip_ratio=1.40 / aq=1:1.00
Language                                 : English
Default                                  : Yes
Forced                                   : No

Audio
ID                                       : 2
Format                                   : AC-3
Format/Info                              : Audio Coding 3
Mode extension                           : CM (complete main)
Codec ID                                 : A_AC3
Duration                                 : 1h 59mn
Bit rate mode                            : Constant
Bit rate                                 : 384 Kbps
Channel(s)                               : 6 channels
Channel positions                        : Front: L C R, Side: L R, LFE
Sampling rate                            : 48.0 KHz
Bit depth                                : 16 bits
Compression mode                         : Lossy
Stream size                              : 329 MiB (23%)
Default                                  : Yes
Forced                                   : Yes


Скриншоты:



pb.wtf



Скачать Рога через торрент https://pic.kartinco.top/images/7/v8x92.jpg Скачать фильм Рога через торрент бесплантно в хорошем качестве Описание: История простого американского парня по имени Иг Перриш, который просыпается рано утром с диким похмельем и обнаруживает, что у ... 9.5 10 40
Info! Золотая раздача, скачанное не засчитывается.
Торрент: Зарегистрирован [2014-10-08 15:28] · скачан: 1 013 раз
Статус: √ проверено
Размер: 1.41 GB
Как cкачать? Как скачать Рога через торрент | UTorrent

28-11-2019 20:33  

Отключить всю рекламу на сайте

08-10-2014 16:47 Рога Скачать торрент  

Фильм отличный, наконец то показал Дэниэл Рэдклифф, что он может еще сниматься и входить в образы. А то я думал, что после Гарри, он больше ничего не покажет.pb.wtf



08-10-2014 17:49 Рога Скачать торрент  

оч оперативно, спасибоpb.wtf



08-10-2014 21:41 Рога Скачать торрент  

Прочитал описание... Все же очевидно, его девушку убил ее любовник, рога так просто не появляются sarcasticpb.wtf



09-10-2014 15:34 Рога Скачать торрент  

А лучше качество звука будет? А то фильм 2013 года...pb.wtf



09-10-2014 16:17 Рога Скачать торрент  

lin052 писал(а):

А лучше качество звука будет? А то фильм 2013 года...

Умник, звука даже с "камрипа" нет, ибо премьера (РФ) 11 декабря 2014.pb.wtf



27-12-2015 17:37 Рога Скачать торрент  

Мои рога моё богатство.pb.wtf



    Дорогой пользователь! Огромная просьба, поблагодарите релизера, оцените раздачу и оставьте свои комментарий, если Вы скачали Рога через торрент бесплатно! Внесите свою лепту в развитие PiratBit!
    Комментировать посты могут только пользователи прошедшие не сложную регистрацию
    Показать сообщения:    

    Рога через торрент
    Скачать бесплатно Рога
    Рога скачать торрент
    Рога смотреть онлайн
    Cкачать фильм Рога бесплатно
    Рога скачать торрент в хорошем качестве
    Рога смотреть онлайн бесплатно в хорошем качестве


    Вы не можете начинать темы
    Вы не можете отвечать на сообщения
    Вы не можете редактировать свои сообщения
    Вы не можете удалять свои сообщения
    Вы не можете голосовать в опросах
    Вы не можете прикреплять файлы к сообщениям
    Вы можете скачивать файлы