Ссылка на приватное зеркало нашего сайта всего за 1$. Внимание количество ограничено!!!

2 сезон

iTunes

1 сезон

1

iTunes

iTunes

iTunes

1 сезон

RePack

30

ИГРА 18+

pack

ВАЖНО

!!Акция!!

Alien_RageХит недели

RePack

MK11
pack

Забери бонус

RePack

jed

!!Акция!!

Alien_Rage

RePack

fifa19

RePack

Assassins Creed: Odyssey

RePack

NEED FOR SPEED™ PAYBACK

4 сезон

9 сезон

Бесстыжие 9 сезон

Все сериалы

все сериалы на PB.wtf

RePack

FAR CRY 5
  

Бухта спасения / Deliverance Creek (Джон Эмиел) [2014 г., драма, WEB-DLRip, Любительский одноголосый "viktor_2838"] pb.wtf

Бухта спасения через торрент pb.wtf

Размер: 1.46 GB | Добавлен: 5 лет 11 мес. назад | Торрент скачан:52 раза
Скачать  

24-10-2014 16:59 Бухта спасения Скачать торрент  

Бухта спасения / Deliverance Creek
Год выпуска: 2014
Страна: США / Nicholas Sparks Productions
Жанр: драма
Продолжительность: 01:27:07
Перевод: Любительский одноголосый (viktor_2838)

Режиссер: Джон Эмиел

В ролях: Лорен Эмброуз, Уэс Рэмси, Кристофер Бакус, Райли Смит, Джюда Льюис, Сэвьер Белл, Кейтлин Кастер, Яани Кинг, Джоэль Джонстоун, Кэтерин Уиллис, Бэрри Табб, Тишуан Скотт

Описание: Конец Гражданской войны, овдовевшая мать троих детей Белль Гатлин Барлоу пытается защитить землю своей семьи всеми возможными способами. Коррумпированный банк, на котором держится их город, заставляет Белль стать преступницей. Это заставляет ее задуматься, что лучше быть хорошей или выжить?

Качество: WEB-DLRip
Формат: AVI
Видео кодек: XviD
Аудио кодек: AC3
Видео: MPEG4, XviD, 720x400 (16:9), 23.976 fps, 2 139 Kbps (0.310 bit/pixel)
Аудио: AC-3, 48.0 KHz, 2 ch, 256 Kbps, CBR


Общее
Полное имя : G:\кино\Бухта спасения.2014.WEB-DLRip.avi
Формат : AVI
Формат/Информация : Audio Video Interleave
Размер файла : 1,46 Гбайт
Продолжительность : 1 ч. 27 м.
Общий поток : 2404 Кбит/сек
Программа кодирования : VirtualDubMod 1.5.10.3 | www.virtualdub-fr.org || (build 2550/release)
Библиотека кодирования : VirtualDubMod build 2550/release

Видео
Идентификатор : 0
Формат : MPEG-4 Visual
Профиль формата : Advanced Simple@L5
Параметр BVOP формата : 1
Параметр QPel формата : Нет
Параметр GMC формата : Без точки перехода
Параметр матрицы формата : Default (MPEG)
Идентификатор кодека : XVID
Идентификатор кодека/Подсказка : XviD
Продолжительность : 1 ч. 27 м.
Битрейт : 2139 Кбит/сек
Ширина : 720 пикселей
Высота : 400 пикселей
Соотношение сторон : 16:9
Частота кадров : 23,976 кадра/сек
Цветовое пространство : YUV
Субдискретизация насыщенности : 4:2:0
Битовая глубина : 8 бит
Тип развёртки : Прогрессивная
Метод сжатия : С потерями
Бит/(Пиксели*Кадры) : 0.310
Размер потока : 1,30 Гбайт (89%)
Библиотека кодирования : XviD 1.2.1 (UTC 2008-12-04)

Аудио
Идентификатор : 1
Формат : AC-3
Формат/Информация : Audio Coding 3
Расширение режима : CM (complete main)
Параметр Endianness формата : Big
Идентификатор кодека : 2000
Продолжительность : 1 ч. 27 м.
Вид битрейта : Постоянный
Битрейт : 256 Кбит/сек
Каналы : 2 канала
Расположение каналов : Front: L R
Частота : 48,0 КГц
Битовая глубина : 16 бит
Метод сжатия : С потерями
Размер потока : 160 Мбайт (11%)
Выравнивание : Разделение по промежуткам
Продолжительность промежутка : 42 мс. (1,00 видеокадр)
Время предзагрузки промежутка : 500 мс.

pb.wtf



Скачать Бухта спасения через торрент http://pic.kartinco.top/images/7/13gfa.jpg Скачать фильм Бухта спасения через торрент бесплантно в хорошем качестве Описание: Конец Гражданской войны, овдовевшая мать троих детей Белль Гатлин Барлоу пытается защитить землю своей семьи всеми возможными ... 10 10 4
Торрент: Зарегистрирован [2014-10-24 16:59] · скачан: 52 раз
Статус: T временная
Размер: 1.46 GB
Как cкачать? Как скачать Бухта спасения через торрент | qTorrent

28-11-2019 20:33  

Отключить всю рекламу на сайте

    Дорогой пользователь! Огромная просьба, поблагодарите релизера, оцените раздачу и оставьте свои комментарий, если Вы скачали Бухта спасения через торрент бесплатно! Внесите свою лепту в развитие PiratBit!
    Комментировать посты могут только пользователи прошедшие не сложную регистрацию
    Показать сообщения:    

    Бухта спасения через торрент
    Скачать бесплатно Бухта спасения
    Бухта спасения скачать торрент
    Бухта спасения смотреть онлайн
    Cкачать фильм Бухта спасения бесплатно
    Бухта спасения скачать торрент в хорошем качестве
    Бухта спасения смотреть онлайн бесплатно в хорошем качестве


    Вы не можете начинать темы
    Вы не можете отвечать на сообщения
    Вы не можете редактировать свои сообщения
    Вы не можете удалять свои сообщения
    Вы не можете голосовать в опросах
    Вы не можете прикреплять файлы к сообщениям
    Вы можете скачивать файлы