Ссылка на приватное зеркало нашего сайта всего за 1$. Внимание количество ограничено!!!

2 сезон

iTunes

1 сезон

1

iTunes

iTunes

iTunes

1 сезон

RePack

30

ИГРА 18+

pack

ВАЖНО

!!Акция!!

Alien_RageХит недели

RePack

MK11
pack

Забери бонус

RePack

jed

!!Акция!!

Alien_Rage

RePack

fifa19

RePack

Assassins Creed: Odyssey

RePack

NEED FOR SPEED™ PAYBACK

4 сезон

9 сезон

Бесстыжие 9 сезон

Все сериалы

все сериалы на PB.wtf

RePack

FAR CRY 5
  

Частная жизнь Пиппы Ли / The Private Lives of Pippa Lee (Ребекка Миллер) [2009, драма, мелодрама, комедия, BDRip 720p] DVO pb.wtf

Частная жизнь Пиппы Ли через торрент pb.wtf

Размер: 5.57 GB | Добавлен: 6 лет назад | Торрент скачан:80 раз
Скачать  

25-10-2014 07:40 Частная жизнь Пиппы Ли Скачать торрент  

Частная жизнь Пиппы Ли / The Private Lives of Pippa Lee

Год выпуска: 2009
Страна: США
Жанр: драма, мелодрама, комедия
Продолжительность: 01:38:11
Перевод: профессиональный двухголосый
Субтитры: русские, английские (для слабослышащих)

Режиссёр: Ребекка Миллер

В ролях: Робин Райт, Киану Ривз, Моника Беллуччи, Блэйк Лайвли, Вайнона Райдер, Джулианна Мур, Алан Аркин, Майк Байндер, Райан МакДональд, Корнелиус Уэст, Мария Белло, Арни Бертон, Тим Гини, Дрю Бисли, Зои Кэзен

Описание: Пиппа Ли — женщина, вызывающая всеобщее восхищение, прекрасная и радушная хозяйка, преданная жена и заботливая мать. Она замужем за известным издателем Хербом Ли, мужчиной на тридцать лет её старше, и вполне счастлива в браке. Когда Хербу исполняется восемьдесят, супруги решают переехать из шумного Нью-Йорка в тихую гавань одного из тех маленьких городков Коннектикута, в которых традиционно ничего не происходит. Не омрачаемая никакими неожиданностями жизнь здесь может сделать счастливым любого, только не Пиппу Ли. Оказывается, что вовсе не всегда Пиппа была образцовой домохозяйкой. Будучи помоложе, она вела развесёлую жизнь, не брезгуя выпивкой, наркотиками и случайными эротическими приключениями. Ей казалось, что те дни остались в далёком прошлом, и вот сейчас, в этом приторно-идиллическом новом мире воспоминания о былых грешках бередят её память. Для начала, Пиппа вновь начинает курить. А когда на её пути встречается привлекательный мужчина, Пиппа с радостью вспоминает уроки своей бурной юности. Фильм снят по мотивам романа Ребекки Миллер «Частная жизнь Пиппы Ли».



Качество: BDRip 720p Сравнение с исходником
Формат: MKV
Видео: MPEG-4 AVC, 6870 Кбит/с, 1280x720, 23.976 кадр/с, 0.311 bpp
Аудио 1: русский, AC3, 448 kbps, 6 ch, 48 kHz [профессиональный двухголосый]
Аудио 2: английский, AC3, 448 kbps, 6 ch, 48 kHz [оригинал]
Аудио 3: английский, AC3, 192 kbps, 2 ch, 48 kHz [комментарий]

Имеются неименованные главы/чаптеры.

Автор рипа msltel
frame I:1058 Avg QP:16.72 size:135637
frame P:26050 Avg QP:18.10 size: 70480
frame B:114105 Avg QP:19.74 size: 28018

Общее
Уникальный идентификатор : 174360831470850084091658374178453941403 (0x832CACB59640FF78BE7F45C58B156C9B)
Полное имя : D:VideoChastnaja gizn Piipy Li.2009.BDRip.720p.mkv
Формат : Matroska
Версия формата : Version 4 / Version 2
Размер файла : 5,57 Гбайт
Продолжительность : 1 ч. 38 м.
Общий поток : 8120 Кбит/сек
Дата кодирования : UTC 2014-10-24 16:49:28
Программа кодирования : mkvmerge v7.3.0 ('Nouages') 64bit built on Oct 22 2014 18:53:34
Библиотека кодирования : libebml v1.3.0 + libmatroska v1.4.1
DURATION : 01:33:20.802000000
NUMBER_OF_FRAMES : 1573
NUMBER_OF_BYTES : 46651
_STATISTICS_WRITING_APP : mkvmerge v7.3.0 ('Nouages') 64bit built on Oct 22 2014 18:53:34
_STATISTICS_WRITING_DATE_UTC : 2014-10-24 16:49:28
_STATISTICS_TAGS : BPS DURATION NUMBER_OF_FRAMES NUMBER_OF_BYTES

Видео
Идентификатор : 1
Формат : AVC
Формат/Информация : Advanced Video Codec
Профиль формата : High@L4.1
Параметр CABAC формата : Да
Параметр ReFrames формата : 9 кадров
Идентификатор кодека : V_MPEG4/ISO/AVC
Продолжительность : 1 ч. 38 м.
Битрейт : 6870 Кбит/сек
Ширина : 1280 пикселей
Высота : 720 пикселей
Соотношение сторон : 16:9
Режим частоты кадров : Постоянный
Частота кадров : 23,976 кадра/сек
Цветовое пространство : YUV
Субдискретизация насыщенности : 4:2:0
Битовая глубина : 8 бит
Тип развёртки : Прогрессивная
Бит/(Пиксели*Кадры) : 0.311
Размер потока : 4,71 Гбайт (85%)
Заголовок : BDRip -- STarankov
Библиотека кодирования : x264 core 142 r2431 ac76440
Настройки программы : cabac=1 / ref=9 / deblock=1:-1:-1 / analyse=0x3:0x113 / me=umh / subme=10 / psy=1 / psy_rd=1.00:0.15 / mixed_ref=1 / me_range=32 / chroma_me=1 / trellis=2 / 8x8dct=1 / cqm=0 / deadzone=21,11 / fast_pskip=1 / chroma_qp_offset=-3 / threads=6 / lookahead_threads=1 / sliced_threads=0 / nr=0 / decimate=1 / interlaced=0 / bluray_compat=0 / constrained_intra=0 / bframes=8 / b_pyramid=2 / b_adapt=2 / b_bias=0 / direct=3 / weightb=1 / open_gop=0 / weightp=2 / keyint=230 / keyint_min=23 / scenecut=40 / intra_refresh=0 / rc_lookahead=40 / rc=crf / mbtree=0 / crf=18.2 / qcomp=0.60 / qpmin=0 / qpmax=69 / qpstep=4 / vbv_maxrate=50000 / vbv_bufsize=62500 / crf_max=0.0 / nal_hrd=none / filler=0 / ip_ratio=1.40 / pb_ratio=1.30 / aq=1:1.00
Язык : English
Default : Да
Forced : Нет
DURATION : 01:38:09.759000000
NUMBER_OF_FRAMES : 141213
NUMBER_OF_BYTES : 5176543997
_STATISTICS_WRITING_APP : mkvmerge v7.3.0 ('Nouages') 64bit built on Oct 22 2014 18:53:34
_STATISTICS_WRITING_DATE_UTC : 2014-10-24 16:49:28
_STATISTICS_TAGS : BPS DURATION NUMBER_OF_FRAMES NUMBER_OF_BYTES

Аудио #1
Идентификатор : 2
Формат : AC-3
Формат/Информация : Audio Coding 3
Расширение режима : CM (complete main)
Параметр Endianness формата : Big
Идентификатор кодека : A_AC3
Продолжительность : 1 ч. 38 м.
Вид битрейта : Постоянный
Битрейт : 448 Кбит/сек
Каналы : 6 каналов
Расположение каналов : Front: L C R, Side: L R, LFE
Частота : 48,0 КГц
Битовая глубина : 16 бит
Метод сжатия : С потерями
Размер потока : 315 Мбайт (6%)
Заголовок : DVO
Язык : Russian
Default : Да
Forced : Нет

Аудио #2
Идентификатор : 3
Формат : AC-3
Формат/Информация : Audio Coding 3
Расширение режима : CM (complete main)
Параметр Endianness формата : Big
Идентификатор кодека : A_AC3
Продолжительность : 1 ч. 38 м.
Вид битрейта : Постоянный
Битрейт : 448 Кбит/сек
Каналы : 6 каналов
Расположение каналов : Front: L C R, Side: L R, LFE
Частота : 48,0 КГц
Битовая глубина : 16 бит
Метод сжатия : С потерями
Размер потока : 315 Мбайт (6%)
Заголовок : Original
Язык : English
Default : Нет
Forced : Нет

Аудио #3
Идентификатор : 4
Формат : AC-3
Формат/Информация : Audio Coding 3
Расширение режима : CM (complete main)
Параметр Endianness формата : Big
Идентификатор кодека : A_AC3
Продолжительность : 1 ч. 38 м.
Вид битрейта : Постоянный
Битрейт : 192 Кбит/сек
Каналы : 2 канала
Расположение каналов : Front: L R
Частота : 48,0 КГц
Битовая глубина : 16 бит
Метод сжатия : С потерями
Размер потока : 135 Мбайт (2%)
Заголовок : Commentary
Язык : English
Default : Нет
Forced : Нет

Текст #1
Идентификатор : 5
Формат : UTF-8
Идентификатор кодека : S_TEXT/UTF8
Идентификатор кодека/Информация : UTF-8 Plain Text
Заголовок : русский
Язык : Russian
Default : Нет
Forced : Нет

Текст #2
Идентификатор : 6
Формат : UTF-8
Идентификатор кодека : S_TEXT/UTF8
Идентификатор кодека/Информация : UTF-8 Plain Text
Заголовок : английский (для слабослышащих)
Язык : English
Default : Нет
Forced : Нет

Меню
00:00:00.000 : :Chapter 01
00:05:00.000 : :Chapter 02
00:10:00.000 : :Chapter 03
00:15:00.000 : :Chapter 04
00:20:00.000 : :Chapter 05
00:25:00.000 : :Chapter 06
00:30:00.000 : :Chapter 07
00:35:00.000 : :Chapter 08
00:40:00.000 : :Chapter 09
00:45:00.000 : :Chapter 10
00:50:00.000 : :Chapter 11
00:55:00.000 : :Chapter 12
01:00:00.000 : :Chapter 13
01:05:00.000 : :Chapter 14
01:10:00.000 : :Chapter 15
01:15:00.000 : :Chapter 16
01:20:00.000 : :Chapter 17
01:25:00.000 : :Chapter 18
01:30:00.000 : :Chapter 19
01:35:00.000 : :Chapter 20
pb.wtf



Скачать Частная жизнь Пиппы Ли через торрент http://i63.fastpic.ru/big/2014/1025/38/f3ca5cf8f3da271f2151a93be2082c38.jpg Скачать фильм Частная жизнь Пиппы Ли через торрент бесплантно в хорошем качестве Описание: Пиппа Ли — женщина, вызывающая всеобщее восхищение, прекрасная и радушная хозяйка, преданная жена и заботливая мать. Она замужем ... 10 10 3
Торрент: Зарегистрирован [2014-10-25 07:40] · скачан: 80 раз
Статус: √ проверено
Размер: 5.57 GB
Как cкачать? Как скачать Частная жизнь Пиппы Ли через торрент | qTorrent

% Раздел Тема Автор DL S | L
Фильмы [HD 720p, 1080p] (Хороший звук DUB, MVO) [ 13.5 GB ] Частная жизнь Пиппы Ли / The Private Lives of Pippa Lee [2009 BDRip 1080p] DVO msltel Скачать
1 | 0
Фильмы 2009 [ 1.45 GB ] Частная жизнь Пиппы Ли / The Private Lives of Pippa Lee [2009 BDRip DVO] MIXX_ON Скачать
1 | 0

28-11-2019 20:33  

Отключить всю рекламу на сайте

    Дорогой пользователь! Огромная просьба, поблагодарите релизера, оцените раздачу и оставьте свои комментарий, если Вы скачали Частная жизнь Пиппы Ли через торрент бесплатно! Внесите свою лепту в развитие PiratBit!
    Комментировать посты могут только пользователи прошедшие не сложную регистрацию
    Показать сообщения:    

    Частная жизнь Пиппы Ли через торрент
    Скачать бесплатно Частная жизнь Пиппы Ли
    Частная жизнь Пиппы Ли скачать торрент
    Частная жизнь Пиппы Ли смотреть онлайн
    Cкачать фильм Частная жизнь Пиппы Ли бесплатно
    Частная жизнь Пиппы Ли скачать торрент в хорошем качестве
    Частная жизнь Пиппы Ли смотреть онлайн бесплатно в хорошем качестве


    Вы не можете начинать темы
    Вы не можете отвечать на сообщения
    Вы не можете редактировать свои сообщения
    Вы не можете удалять свои сообщения
    Вы не можете голосовать в опросах
    Вы не можете прикреплять файлы к сообщениям
    Вы можете скачивать файлы