MEGA SALE -50% FORZA HORIZON 4 ULTIMATE+ВСЕ DLC+ОНЛАЙН всего за 599р. 299 руб. (супер цена). Внимание количество ограничено!!!

iTunes

1+1

iTunes

мы

iTunes

1

iTunes

Чернобыль

1 сезон

Ральф против интернета

Лицензия

ПШазам

Лицензия

Игра престолов

Лицензия

30
pack

ВАЖНО

!!Акция!!

Alien_RageХит недели

RePack

Resident Evil 21

ИГРА 18+

pack

RePack

Metro:Exodus

!!Акция!!

Alien_Rage

RePack

fifa19

RePack

Assassins Creed: Odyssey

RePack

NEED FOR SPEED™ PAYBACK

3 сезон

9 сезон

Бесстыжие 9 сезон

Все сериалы

все сериалы на PB.wtf

RePack

FAR CRY 5
Ребята, катастрофически не хватает 7730р. для оплаты серверов за ИЮЛЬ (всвязи с блокировками трафик упал в 3 раза), 1-2р., выручайте.
  

Зануда / L'emmerdeur (Эдуар Молинаро) [1973 г., комедия, HDRip, Дубляж] pb.wtf

Зануда через торрент pb.wtf

Размер: 1.42 GB | Добавлен: 4 года 9 мес. назад | Торрент скачан:29 раз
Скачать  

25-10-2014 08:12 Зануда Скачать торрент  

Зануда / L'emmerdeur
Год выпуска: 1973
Страна: Франция, Италия Les Films Ariane, Mondex Films, Oceania Produzioni Internazionali Cinematografiche
Жанр: комедия
Продолжительность: 01:24:34
Перевод: Советский дубляж, Киностудия им. М. Горького, 1977 год

Режиссер: Эдуар Молинаро
Продюссер: Жорж Дансижер, Александр Мнушкин, Роберт Амон
Сценарий: Франсис Вебер

Премьера в мире: 20 сентября 1973

MPAA: RG-рекомендуется присутствие родителей
IMDb: 7.10 (1740)
Кинопоиск:7.388 414

В ролях: Лино Вентура, Жак Брель, Каролин Селлье, Жан-Пьер Даррас, Нино Кастельнуово, Анджела Кардиле, Микеле Гаммино, Ксавье Депраз, Франсуа Дирек, Жан-Луи Тристан, Андре Валарди, Жан Франваль, Пьер Колле, Арлетт Балкис, Жак Галлан

Описание: В город Монпелье прибыл юрист Луи Рандони, чтобы выступить с сенсационными разоблачениями на судебном процессе против боссов мафии, а следом за ним — киллер Ральф Милан, нанятый для устранения смелого правдоруба. Убийца с профессиональной дотошностью подготовился к исполнению заказа. И, несмотря на беспрецедентные меры по защите свидетеля, Рандони был обречен. Но в работе Милана возникли непредвиденные помехи. И все из-за соседа по отелю — Франсуа Пиньона, неудачника, недотепы, брошенного женой, решившего покончить с собой и спасенного Миланом. Нытье и занудство Пиньона, прилипшего к своему спасителю, способны свести с ума любого, даже киллера с железными, казалось бы, нервами…

Качество: HDRip
Формат: AVI
Видео кодек: XviD
Аудио кодек: AC3
Видео: 720x432 (1.67:1), 24.000 fps, XviD build 50 ~2199 kbps avg, 0.29 bit/pixel
Аудио#1: 48 kHz, AC3 Dolby Digital, 2/0 (L,R) ch, ~192 kbps







Общее
Полное имя : D:\torrent\Зануда - L'Emmerdeur.DVDRip.1973.avi
Формат : AVI
Формат/Информация : Audio Video Interleave
Размер файла : 1,42 Гбайт
Продолжительность : 1 ч. 24 м.
Общий поток : 2401 Кбит/сек
Название фильма : Зануда - L'Emmerdeur [by Edich2]
Режиссёр : Rip by Edich2
Программа кодирования : VirtualDubMod 1.5.10.2 (build 2540/release)
Примечание : RuTracker.org

Видео
Идентификатор : 0
Формат : MPEG-4 Visual
Профиль формата : Advanced Simple@L5
Параметр BVOP формата : 2
Параметр QPel формата : Нет
Параметр GMC формата : Без точки перехода
Параметр матрицы формата : Выборочная
Идентификатор кодека : XVID
Идентификатор кодека/Подсказка : XviD
Продолжительность : 1 ч. 24 м.
Битрейт : 2199 Кбит/сек
Ширина : 720 пикселей
Высота : 432 пикселя
Соотношение сторон : 1,667
Частота кадров : 24,000 кадра/сек
Цветовое пространство : YUV
Субдискретизация насыщенности : 4:2:0
Битовая глубина : 8 бит
Тип развёртки : Прогрессивная
Метод сжатия : С потерями
Бит/(Пиксели*Кадры) : 0.295
Размер потока : 1,30 Гбайт (92%)
Библиотека кодирования : XviD 1.2.1 (UTC 2008-12-04)

Аудио
Идентификатор : 1
Формат : AC-3
Формат/Информация : Audio Coding 3
Расширение режима : CM (complete main)
Параметр Endianness формата : Big
Идентификатор кодека : 2000
Продолжительность : 1 ч. 24 м.
Вид битрейта : Постоянный
Битрейт : 192 Кбит/сек
Каналы : 2 канала
Расположение каналов : Front: L R
Частота : 48,0 КГц
Битовая глубина : 16 бит
Метод сжатия : С потерями
Размер потока : 116 Мбайт (8%)
Выравнивание : Разделение по промежуткам
Продолжительность промежутка : 42 мс. (1,00 видеокадр)
Время предзагрузки промежутка : 500 мс.

pb.wtf



Скачать Зануда через торрент http://pic.kartinco.top/images/7/wnw1r.jpg Скачать фильм Зануда через торрент бесплантно в хорошем качестве Описание: В город Монпелье прибыл юрист Луи Рандони, чтобы выступить с сенсационными разоблачениями на судебном процессе против боссов ... 10 10 3
Info! Золотая раздача, скачанное не засчитывается.
Торрент: Зарегистрирован [2014-10-25 08:12] · скачан: 29 раз
Статус: √ проверено
Размер: 1.42 GB
Как cкачать? Как скачать Зануда через торрент | qTorrent


>> Регистрируемся здесь <<






Отзывы и комментарии о схеме читаем и пишем здесь: ---> Отзывы и комментарии о схеме

Новые благодарочки в телеграм довольных пользователей:
скриншот   скриншот   скриншот   скриншот   скриншот
    Дорогой пользователь! Огромная просьба, поблагодарите релизера, оцените раздачу и оставьте свои комментарий, если Вы скачали Зануда через торрент бесплатно! Внесите свою лепту в развитие PiratBit!
    Комментировать посты могут только пользователи прошедшие не сложную регистрацию
    Показать сообщения:    

    Зануда через торрент
    Скачать бесплатно Зануда
    Зануда скачать торрент
    Зануда смотреть онлайн
    Cкачать фильм Зануда бесплатно
    Зануда скачать торрент в хорошем качестве
    Зануда смотреть онлайн бесплатно в хорошем качестве


    Вы не можете начинать темы
    Вы не можете отвечать на сообщения
    Вы не можете редактировать свои сообщения
    Вы не можете удалять свои сообщения
    Вы не можете голосовать в опросах
    Вы не можете прикреплять файлы к сообщениям
    Вы можете скачивать файлы