1 сезон

1 сезон

iTunes

1

КиноПоиск HD

Кинопоиск HD

iTunes

13

1 сезон

RePack

30

Ultimate

ВАЖНО

ИГРА 18+

pack

RePack

MK11
pack

Легкие деньги

RePack

jed

RePack

fifa19

RePack

RDR2

RePack

NEED FOR SPEED™ PAYBACK

4 сезон

9 сезон

Бесстыжие 9 сезон

Все сериалы

все сериалы на PB.wtf

RePack

FAR CRY 5
  
Magnet ссылка

Пришелец / Impostor (Гэри Фледер) [2001 г., фантастика, боевик, триллер, драма, BDRip, Дубляж] pb.wtf

Пришелец через торрент pb.wtf

Размер: 1.45 GB | Добавлен: 6 лет 5 мес. назад | Торрент скачан:134 раза
Скачать  

25-10-2014 09:18 Пришелец Скачать торрент  

Пришелец / Impostor
Год выпуска: 2001
Страна: США, Dimension Films
Жанр: фантастика, боевик, триллер, драма
Продолжительность: 01:35:35
Перевод: Дубляж

Режиссер: Гэри Фледер
Продюссер: Гэри Фледер, Марти Кац, Дэниэл Лупи
Сценарий: Кэролайн Кейс, Эрен Крюгер, Дэвид Туи

Бюджет: $30 000 000
Премьера в мире: 27 октября 2001

MPAA: RG-детям до 13 лет просмотр не желателен
IMDb: 6.20 (18 420)
Кинопоиск:7.035 3925

В ролях: Гэри Синиз, Мэдлин Стоу, Винсент Д`Онофрио, Тони Шэлоуб, Тим Гини, Элизабет Пенья, Мехи Файфер, Линдси Краус, Гари Дурдан

Описание: 2079 год. Уже много лет земляне ведут войну с инопланетянами. Талантливый ученый Спенсер Олхэм создает уникальное оружие для борьбы с ними. Но в один прекрасный день его самого объявляют пришельцем и начинают широкомасштабную охоту.

В ситуации, когда его ищут все спецслужбы страны, Спенсер должен доказать свою невиновность и понять, кто он есть на самом деле…

Качество: BDRip
Формат: AVI
Видео кодек: XviD
Аудио кодек: AC3
Видео: 704x400 (1.76:1), 23.976 fps, XviD MPEG-4 ~1781 kbps avg, 0.26 bit/pixel
Аудио#1: 48 kHz, AC3 Dolby Digital, 3/2 (L,C,R,l,r) + LFE ch, ~384 kbps










Общее
Полное имя : D:\torrent\Prishelec 2001 BDRip.avi
Формат : AVI
Формат/Информация : Audio Video Interleave
Размер файла : 1,45 Гбайт
Продолжительность : 1 ч. 35 м.
Общий поток : 2175 Кбит/сек
Название фильма : Пришелец / Impostor [Театральная версия / Theatrical Cut] (2001) BDRip
Режиссёр : sociolog_melvas
Жанр : фантастика, боевик, триллер
Программа кодирования : VirtualDubMod 1.5.10.2 (build 2540/release)

Примечание : 30.07.2012

Видео
Идентификатор : 0
Формат : MPEG-4 Visual
Профиль формата : Advanced Simple@L5
Параметр BVOP формата : 1
Параметр QPel формата : Нет
Параметр GMC формата : Без точки перехода
Параметр матрицы формата : Выборочная
Идентификатор кодека : XVID
Идентификатор кодека/Подсказка : XviD
Продолжительность : 1 ч. 35 м.
Битрейт : 1782 Кбит/сек
Ширина : 704 пикселя
Высота : 400 пикселей
Соотношение сторон : 16:9
Частота кадров : 23,976 кадра/сек
Цветовое пространство : YUV
Субдискретизация насыщенности : 4:2:0
Битовая глубина : 8 бит
Тип развёртки : Прогрессивная
Метод сжатия : С потерями
Бит/(Пиксели*Кадры) : 0.264
Размер потока : 1,19 Гбайт (82%)
Библиотека кодирования : XviD 72

Аудио
Идентификатор : 1
Формат : AC-3
Формат/Информация : Audio Coding 3
Расширение режима : CM (complete main)
Параметр Endianness формата : Big
Идентификатор кодека : 2000
Продолжительность : 1 ч. 35 м.
Вид битрейта : Постоянный
Битрейт : 384 Кбит/сек
Каналы : 6 каналов
Расположение каналов : Front: L C R, Side: L R, LFE
Частота : 48,0 КГц
Битовая глубина : 16 бит
Метод сжатия : С потерями
Размер потока : 262 Мбайт (18%)
Выравнивание : Разделение по промежуткам
Продолжительность промежутка : 42 мс. (1,00 видеокадр)
Время предзагрузки промежутка : 500 мс.

pb.wtf



Скачать Пришелец через торрент https://pic.kartinco.top/images/7/dry5e.jpg Скачать фильм Пришелец через торрент бесплантно в хорошем качестве Описание: 2079 год. Уже много лет земляне ведут войну с инопланетянами. Талантливый ученый Спенсер Олхэм создает уникальное оружие для ... 9.6 10 9
Торрент: Зарегистрирован [2014-10-25 09:18] · скачан: 134 раз
Статус: √ проверено
Размер: 1.45 GB
Как cкачать? Как скачать Пришелец через торрент | UTorrent

% Раздел Тема Автор DL S | L
Фильмы с авторской озвучкой [ 1.46 GB ] Пришелец / Impostor [2001 DVDRip] AVO |Гаврилов| Mr. Freeman Скачать
1 | 0
Фильмы 2001-2005 [ 1.46 GB ] Пришелец / Impostor [2001 DVDRip] dub oartemka178 Скачать
1 | 0
Фильмы 2001-2005 [ 745 MB ] Пришелец / Impostor [2001 DVDRip] dub -=Cherry=- Скачать
1 | 0
Фильмы 2001-2005 [ 1.37 GB ] Пришелец / Impostor [2001 ... DVDRip] allexx70 Скачать
1 | 0


Последний раз редактировалось: jump88 (2014-10-25 09:45), всего редактировалось 1 раз

28-11-2019 20:33  

Отключить всю рекламу на сайте


    Дорогой пользователь! Огромная просьба, поблагодарите релизера, оцените раздачу и оставьте свои комментарий, если Вы скачали Пришелец через торрент бесплатно! Внесите свою лепту в развитие PiratBit!
    Комментировать посты могут только пользователи прошедшие не сложную регистрацию
    Показать сообщения:    

    Пришелец через торрент
    Скачать бесплатно Пришелец
    Пришелец скачать торрент
    Пришелец смотреть онлайн
    Cкачать фильм Пришелец бесплатно
    Пришелец скачать торрент в хорошем качестве
    Пришелец смотреть онлайн бесплатно в хорошем качестве


    Вы не можете начинать темы
    Вы не можете отвечать на сообщения
    Вы не можете редактировать свои сообщения
    Вы не можете удалять свои сообщения
    Вы не можете голосовать в опросах
    Вы не можете прикреплять файлы к сообщениям
    Вы можете скачивать файлы