MEGA SALE -50% FORZA HORIZON 4 ULTIMATE+ВСЕ DLC+ОНЛАЙН всего за 599р. 299 руб. (супер цена). Внимание количество ограничено!!!

iTunes

1+1

iTunes

мы

iTunes

1

iTunes

Чернобыль

iTunes

Ральф против интернета

Лицензия

ПШазам

Лицензия

Игра престолов

Лицензия

30
pack

ВАЖНО

!!Акция!!

Alien_RageХит недели

RePack

Resident Evil 21

ИГРА 18+

pack

RePack

Metro:Exodus

!!Акция!!

Alien_Rage

RePack

fifa19

RePack

Assassins Creed: Odyssey

RePack

NEED FOR SPEED™ PAYBACK

3 сезон

9 сезон

Бесстыжие 9 сезон

Все сериалы

все сериалы на PB.wtf

RePack

FAR CRY 5
Ребята, катастрофически не хватает 7730р. для оплаты серверов за АВГУСТ (всвязи с блокировками трафик упал в 3 раза), 1-2р., выручайте.
  

Омен / The Omen (Ричард Доннер) [1976 г., ужасы, триллер, детектив, BDRip, Профессиональный многоголосый] pb.wtf

Омен через торрент pb.wtf

Размер: 1.45 GB | Добавлен: 4 года 10 мес. назад | Торрент скачан:28 раз
Скачать  

26-10-2014 03:31 Омен Скачать торрент  

Омен / The Omen
Год выпуска: 1976
Страна: Великобритания, США
Жанр: ужасы, триллер, детектив
Продолжительность: 01:51:03
Перевод: Профессиональный многоголосый

Режиссер: Ричард Доннер
Продюссер: Харви Бернхард, Мэйс Нойфельд, Чарльз Орм
Сценарий: Дэвид Зельцер

Бюджет: $2 800 000
Премьера в мире: 25 июня 1976

MPAA:R-лицам до 17 лет обязательно присутствие взрослого
IMDb: 7.60 (65 159)
Кинопоиск:7.676 16 282

В ролях: Грегори Пек, Ли Ремик, Дэвид Уорнер, Билли Уайтлоу, Харви Стефенс, Патрик Тротон, Мартин Бенсон, Роберт Ритти

Описание: Он был рожден в 6 часов 6-го дня 6-го месяца. Как предсказано в Книге Откровений, настанет Конец света, последнее противостояние сил добра и зла, и началом его будет рождение сына Сатаны в облике человеческом..
У жены американского дипломата Роберта Торна рождается мертвый ребенок, и ее муж неспособный сообщить ей эту трагическую новость, усыновляет младенца с непонятным родимым пятном в виде трех шестерок – числа зверя. Подробности рождения ребенка остаются в секрете, но со временем становится ясно, что это необычный ребенок.
Вокруг постоянно, при загадочных обстоятельствах, умирают люди и происходят таинственные события, после которых Роберт Торн начинает панически бояться усыновленного мальчика, за невинным ангельским лицом которого прячется безжалостная дьявольская сущность.

Качество: BDRip
Формат: AVI
Видео кодек: XviD
Аудио кодек: AC3
Видео: 720x304 (2.37:1), 23.976 fps, XviD build 50 ~1470 kbps avg, 0.28 bit/pixel
Аудио#1: 48 kHz, AC3 Dolby Digital, 3/2 (L,C,R,l,r) + LFE ch, ~384 kbps









Общее
Полное имя : D:\torrent\Omen_1976_BDRip_1,46.avi
Формат : AVI
Формат/Информация : Audio Video Interleave
Размер файла : 1,45 Гбайт
Продолжительность : 1 ч. 51 м.
Общий поток : 1864 Кбит/сек
Программа кодирования : VirtualDubMod 1.5.10.2 (build 2540/release)
Библиотека кодирования : VirtualDubMod build 2540/release

Видео
Идентификатор : 0
Формат : MPEG-4 Visual
Профиль формата : Advanced Simple@L5
Параметр BVOP формата : 1
Параметр QPel формата : Нет
Параметр GMC формата : Без точки перехода
Параметр матрицы формата : Выборочная
Идентификатор кодека : XVID
Идентификатор кодека/Подсказка : XviD
Продолжительность : 1 ч. 51 м.
Битрейт : 1471 Кбит/сек
Ширина : 720 пикселей
Высота : 304 пикселя
Соотношение сторон : 2,35:1
Частота кадров : 23,976 кадра/сек
Цветовое пространство : YUV
Субдискретизация насыщенности : 4:2:0
Битовая глубина : 8 бит
Тип развёртки : Прогрессивная
Метод сжатия : С потерями
Бит/(Пиксели*Кадры) : 0.280
Размер потока : 1,14 Гбайт (79%)
Библиотека кодирования : XviD 1.2.1 (UTC 2008-12-04)

Аудио
Идентификатор : 1
Формат : AC-3
Формат/Информация : Audio Coding 3
Расширение режима : CM (complete main)
Параметр Endianness формата : Big
Идентификатор кодека : 2000
Продолжительность : 1 ч. 51 м.
Вид битрейта : Постоянный
Битрейт : 384 Кбит/сек
Каналы : 6 каналов
Расположение каналов : Front: L C R, Side: L R, LFE
Частота : 48,0 КГц
Битовая глубина : 16 бит
Метод сжатия : С потерями
Размер потока : 305 Мбайт (21%)
Выравнивание : Разделение по промежуткам
Продолжительность промежутка : 42 мс. (1,00 видеокадр)
Время предзагрузки промежутка : 500 мс.

pb.wtf



Скачать Омен через торрент http://pic.kartinco.top/images/7/1xz3e.jpg Скачать фильм Омен через торрент бесплантно в хорошем качестве Описание: Он был рожден в 6 часов 6-го дня 6-го месяца. Как предсказано в Книге Откровений, настанет Конец света, последнее противостояние ... 10 10 3
Торрент: Зарегистрирован [2014-10-26 03:31] · скачан: 28 раз
Статус: √ проверено
Размер: 1.45 GB
Как cкачать? Как скачать Омен через торрент | qTorrent

% Раздел Тема Автор DL S | L
Фильмы [HD 720p, 1080p] (Хороший звук DUB, MVO) [ 16.13 GB ] Омен / The Omen [1976 BDRip 1080p by msltel] 2 x MVO 7 x AVO msltel Скачать
1 | 0
Фильмы [HD 720p, 1080p] (Хороший звук DUB, MVO) [ 6.56 GB ] Омен / The Omen [1976 BDRip 720p by msltel] 2 x MVO 7 x AVO msltel Скачать
1 | 0
Фильмы с авторской озвучкой [ 1.45 GB ] Ледяной / The Iceman [2012 BDRip] [AVO] killermax2013 Скачать
1 | 0
Порно фильмы с сюжетом [ 876 MB ] С Первого Момента / From The First Moment [2016 Feature Foreign Straight Oral Couples DVDRip 406p] sheker187 Скачать
1 | 0
Фильмы 2012 [ 1.46 GB ] Ледяной / The Iceman [2012 биография HDRip НТВ+ Ворон Скачать
1 | 0
National Geographic [ 699 MB ] Момент смерти / The moment of death [2008 Документальный научно-популярный DVDRip одноголосый] Grizzly93rus Скачать
1 | 0
Классика зарубежного кино [ 1.37 GB ] Омен 4: Пробуждение / Omen IV: The Awakening [1991 DVDRip многоголосый jump88 Скачать
1 | 0


>> Регистрируемся здесь <<






Отзывы и комментарии о схеме читаем и пишем здесь: ---> Отзывы и комментарии о схеме

Новые благодарочки в телеграм довольных пользователей:
скриншот   скриншот   скриншот   скриншот   скриншот
    Дорогой пользователь! Огромная просьба, поблагодарите релизера, оцените раздачу и оставьте свои комментарий, если Вы скачали Омен через торрент бесплатно! Внесите свою лепту в развитие PiratBit!
    Комментировать посты могут только пользователи прошедшие не сложную регистрацию
    Показать сообщения:    

    Омен через торрент
    Скачать бесплатно Омен
    Омен скачать торрент
    Омен смотреть онлайн
    Cкачать фильм Омен бесплатно
    Омен скачать торрент в хорошем качестве
    Омен смотреть онлайн бесплатно в хорошем качестве


    Вы не можете начинать темы
    Вы не можете отвечать на сообщения
    Вы не можете редактировать свои сообщения
    Вы не можете удалять свои сообщения
    Вы не можете голосовать в опросах
    Вы не можете прикреплять файлы к сообщениям
    Вы можете скачивать файлы