MEGA NEWS Получи личный уникальный адрес сайта и защити себя от блокировок. Внимание количество ограничено!!!

iTunes

1+1

iTunes

мы

iTunes

1

iTunes

Чернобыль

iTunes

Ральф против интернета

Лицензия

ПШазам

Лицензия

Игра престолов

Лицензия

30
pack

ВАЖНО

!!Акция!!

Alien_RageХит недели

RePack

Resident Evil 21

ИГРА 18+

pack

RePack

Metro:Exodus

!!Акция!!

Alien_Rage

RePack

fifa19

RePack

Assassins Creed: Odyssey

RePack

NEED FOR SPEED™ PAYBACK

3 сезон

9 сезон

Бесстыжие 9 сезон

Все сериалы

все сериалы на PB.wtf

RePack

FAR CRY 5
Ребята, катастрофически не хватает 1900р. для оплаты серверов за АВГУСТ (всвязи с блокировками трафик упал в 3 раза), 1-2р., выручайте.
  

Рожденная свободной / Born Free (Джеймс Хилл, Том Макгоун) [1966 г., драма, приключения, семейный, DVDRip, Профессиональный многоголосый] pb.wtf

Рожденная свободной через торрент pb.wtf

Размер: 1.46 GB | Добавлен: 4 года 11 мес. назад | Торрент скачан:3 раза
Скачать  

26-10-2014 07:43 Рожденная свободной Скачать торрент  

Рожденная свободной / Born Free
Год выпуска: 1966
Страна: Великобритания, США
Жанр: драма, приключения, семейный
Продолжительность: 01:35:10
Перевод: Профессиональный многоголосый

Режиссер: Джеймс Хилл, Том Макгоун
Продюссер: Сэм Джаффе, Пол Б. Радин
Сценарий: Лестер Коул, Джой Адамсон

Премьера в мире: 14 марта 1966

MPAA:RG-рекомендуется присутствие родителей
IMDb: 7.30 (3992)
Кинопоиск: 8.432 271

В ролях: Вирджиния МакКенна, Билл Треверс, Джефри Кин, Питер Лукойе, Омар Чамбати, Билл Годден, Роберт С. Янг, Брайн Эпсом, Джеффри Бест, Роберт Читхем, Сурья Патель

Описание: Фильм был снят в Африканской саванне по одноименному бестселлеру известной писательницы и натуралиста Джой Адамсон. Картина рассказывает о судьбе львицы Эльсы, еще детенышем попавшей к супругам Адамсон. Они не только спасают малышку от неминуемой гибели, но и, вырастив ее, возвращают назад в дикую природу потому, что она была рождена свободной. Авторам удалось превосходно запечатлеть и передать с помощью средств кино красоту природы и животного мира Кении.
: Фильм был снят по реальным событиям и в съемках фильма принимали участие сама Джой Адамсон и ее муж. Прекрасный фильм. А Джой Адамсон — выдающаяся самоотверженная женщина, посвятившая всю жизнь защите дикой природы.

Да, возможна дружба между людьми и дикими животными, это восхищает нас в этом фильме и книге, а так же в другой документальной книге Джой Адамсон «Пятнистый сфинкс» (в которой, кстати, частично описаны съемки данного фильма). У Джой были две прекрасные и верные дикие подруги: Эльса и Пиппа. Но при всей этой дружбе место диких животных и их дом — на воле и только там.

Из актерского состава более всего могу выделить Билла Траверса, прекрасно сыгравшего Джорджа.

Ну и конечно, самые живые актеры — чудесные, рожденные свободными львы и незабываемая дикая природа Кении.

Качество: DVDRip
Формат: AVI
Видео кодек: XviD
Аудио кодек: AC3
Видео: 720x304 (2.37:1), 23.976 fps, XviD build 58 ~1993 kbps avg, 0.38 bit/pixel
Аудио#1: 48 kHz, AC3 Dolby Digital, 2/0 (L,R) ch, ~192 kbps










Общее
Полное имя : D:\torrent\Rozhdennaya.svobodnoy.1966.XviD.DVDRip.vovaniez.avi
Формат : AVI
Формат/Информация : Audio Video Interleave
Размер файла : 1,46 Гбайт
Продолжительность : 1 ч. 35 м.
Общий поток : 2195 Кбит/сек
Программа кодирования : VirtualDubMod 1.5.10.3 | www.virtualdub-fr.org || (build 2550/release)
Библиотека кодирования : VirtualDubMod build 2550/release

Видео
Идентификатор : 0
Формат : MPEG-4 Visual
Профиль формата : Advanced Simple@L5
Параметр BVOP формата : 1
Параметр QPel формата : Нет
Параметр GMC формата : Без точки перехода
Параметр матрицы формата : Выборочная
Идентификатор кодека : XVID
Идентификатор кодека/Подсказка : XviD
Продолжительность : 1 ч. 35 м.
Битрейт : 1993 Кбит/сек
Ширина : 720 пикселей
Высота : 304 пикселя
Соотношение сторон : 2,35:1
Частота кадров : 23,976 кадра/сек
Цветовое пространство : YUV
Субдискретизация насыщенности : 4:2:0
Битовая глубина : 8 бит
Тип развёртки : Прогрессивная
Метод сжатия : С потерями
Бит/(Пиксели*Кадры) : 0.380
Размер потока : 1,32 Гбайт (91%)
Библиотека кодирования : XviD 58

Аудио
Идентификатор : 1
Формат : AC-3
Формат/Информация : Audio Coding 3
Расширение режима : CM (complete main)
Параметр Endianness формата : Big
Идентификатор кодека : 2000
Продолжительность : 1 ч. 35 м.
Вид битрейта : Постоянный
Битрейт : 192 Кбит/сек
Каналы : 2 канала
Расположение каналов : Front: L R
Частота : 48,0 КГц
Битовая глубина : 16 бит
Метод сжатия : С потерями
Размер потока : 131 Мбайт (9%)
Выравнивание : Разделение по промежуткам
Продолжительность промежутка : 42 мс. (1,00 видеокадр)
Время предзагрузки промежутка : 500 мс.

pb.wtf



Скачать Рожденная свободной через торрент http://pic.kartinco.top/images/7/5qgjl.jpg Скачать фильм Рожденная свободной через торрент бесплантно в хорошем качестве Описание: Фильм был снят в Африканской саванне по одноименному бестселлеру известной писательницы и натуралиста Джой Адамсон. Картина ... 10 10 3
Info! Золотая раздача, скачанное не засчитывается.
Торрент: Зарегистрирован [2014-10-26 07:43] · скачан: 3 раз
Статус: √ проверено
Размер: 1.46 GB
Как cкачать? Как скачать Рожденная свободной через торрент | qTorrent


>> Регистрируемся здесь <<






Отзывы и комментарии о схеме читаем и пишем здесь: ---> Отзывы и комментарии о схеме

Новые благодарочки в телеграм довольных пользователей:
скриншот   скриншот   скриншот   скриншот   скриншот
    Дорогой пользователь! Огромная просьба, поблагодарите релизера, оцените раздачу и оставьте свои комментарий, если Вы скачали Рожденная свободной через торрент бесплатно! Внесите свою лепту в развитие PiratBit!
    Комментировать посты могут только пользователи прошедшие не сложную регистрацию
    Показать сообщения:    

    Рожденная свободной через торрент
    Скачать бесплатно Рожденная свободной
    Рожденная свободной скачать торрент
    Рожденная свободной смотреть онлайн
    Cкачать фильм Рожденная свободной бесплатно
    Рожденная свободной скачать торрент в хорошем качестве
    Рожденная свободной смотреть онлайн бесплатно в хорошем качестве


    Вы не можете начинать темы
    Вы не можете отвечать на сообщения
    Вы не можете редактировать свои сообщения
    Вы не можете удалять свои сообщения
    Вы не можете голосовать в опросах
    Вы не можете прикреплять файлы к сообщениям
    Вы можете скачивать файлы