Всегда рабочее зеркало без VPN и Proxy просто перед .vidak.icu напиши любое слово или цифру, Пример http://lihw.vidak.icu

MVO

2 сезон

1 сезон

1

1 сезон

iTunes

2 сезон

13

1 сезон

Deluxe

pack

Рекомендуем

Пиратка

30

ВАЖНО

RePack

MK11

RePack

jed

RePack

fifa19

RePack

RDR2

RePack

NEED FOR SPEED™ PAYBACK

Кинопоиск HD

6 сезон

 Острые козырьки 6 сезон

Все сериалы

все сериалы на PB.wtf

RePack

FAR CRY 5

Anonymous, нам критически не хватает 5601 руб. на оплату серверов и переферии за Апрель, помоги нам пожалуйста, вся надежда только на тебя. В благодарность мы отключим тебе всю рекламу на сайте!

×
  
Magnet ссылка

Deep Purple and Friends - Celebrating Jon Lord: The Rock Legend [2014, rock, hard-n-heavy, BDRip 720p] pb.wtf

Deep Purple and Friends - Celebrating Jon Lord: The Rock Legend через торрент pb.wtf

Размер: 5.48 GB | Добавлен: 7 лет 7 мес. назад | Торрент скачан:139 раз
Смотреть онлайн Deep Purple and Friends - Celebrating Jon Lord: The Rock Legend | Скачать    Ребята, помогите собрать деньги на оплату серверов!!!

26-10-2014 09:35 Deep Purple and Friends - Celebrating Jon Lord: The Rock Legend Скачать торрент  

Информация о музыке

Исполнитель: Deep Purple and Friends

Альбом: Celebrating Jon Lord (Live At The Royal Albert Hall)

Жанр: rock, hard-n-heavy

Страна: England

Год выпуска: 2014

Продолжительность: 01:53:26

ЛейблearMUSIC

Файл

Качество: BDRip 720p

Формат: MKV

Видео кодек: AVC

Аудио кодек:AC3

Видео: MPEG4 AVC, 1280x720 (16:9), 29,970 fps, ~6000 kbps avg, 0.22 bit/pixel

Звук #1: 48 kHz, AC3 Dolby Digital, 2/0 (L,R) ch, ~448.00 kbps avg

Звук #2: 48 kHz, AC3 Dolby Digital, 3/2 (L,C,R,l,r) + LFE ch, ~448.00 kbps avg
01. Paul Weller - Things Get Better

02. Paul Weller - I Take What I Want

03. Phil Campbell, Ian Paice & Bernie Marsden - Silas and Jerome

04. Phil Campbell, Ian Paice & Bernie Marsden - I'm Gonna Stop Drinking

05. Steve Balsamo & Sandi Thom - Soldier of Fortune

06. Glenn Hughes & Bruce Dickinson - You Keep On Moving

07. Glenn Hughes & Bruce Dickinson - Burn

08. Glenn Hughes - This Time Around

09. Deep Purple - Uncommon Man

10. Deep Purple - Above and Beyond

11. Deep Purple - Lazy

12. Deep Purple - When a Blind Man Cries

13. Deep Purple - Perfect Strangers

14. Deep Purple - Black Night

15. Deep Purple, Bruce Dickinson & Rick Wakeman - Hush
General
Unique ID : 224668281228717977974352969473240914610 (0xA905897B45C6D380A1815D8DF12CDAB2)
Complete name : D:\Торенты\Deep.Purple.and.Friends_Celebrating.Jon.Lord.2014.BDRip.720p.mkv
Format : Matroska
Format version : Version 4 / Version 2
File size : 5.48 GiB
Duration : 1h 53mn
Overall bit rate : 6 901 Kbps
Encoded date : UTC 2014-10-13 03:12:27
Writing application : mkvmerge v7.2.0 ('On Every Street') 32bit built on Sep 13 2014 15:42:11
Writing library : libebml v1.3.0 + libmatroska v1.4.1
DURATION : 01:53:35.936000000
NUMBER_OF_FRAMES : 212998
NUMBER_OF_BYTES : 381692416
_STATISTICS_WRITING_APP : mkvmerge v7.2.0 ('On Every Street') 32bit built on Sep 13 2014 15:42:11
_STATISTICS_WRITING_DATE_UTC : 2014-10-13 03:12:27
_STATISTICS_TAGS : BPS DURATION NUMBER_OF_FRAMES NUMBER_OF_BYTES

Video
ID : 1
Format : AVC
Format/Info : Advanced Video Codec
Format profile : High@L3.1
Format settings, CABAC : Yes
Format settings, ReFrames : 4 frames
Codec ID : V_MPEG4/ISO/AVC
Duration : 1h 53mn
Bit rate : 6 000 Kbps
Width : 1 280 pixels
Height : 720 pixels
Display aspect ratio : 16:9
Frame rate mode : Constant
Frame rate : 29.970 fps
Color space : YUV
Chroma subsampling : 4:2:0
Bit depth : 8 bits
Scan type : Progressive
Bits/(Pixel*Frame) : 0.217
Stream size : 4.66 GiB (85%)
Writing library : x264 core 120
Encoding settings : cabac=1 / ref=3 / deblock=1:0:0 / analyse=0x3:0x113 / me=hex / subme=7 / psy=1 / psy_rd=1.00:0.00 / mixed_ref=1 / me_range=16 / chroma_me=1 / trellis=1 / 8x8dct=1 / cqm=0 / deadzone=21,11 / fast_pskip=1 / chroma_qp_offset=-2 / threads=6 / sliced_threads=0 / nr=0 / decimate=1 / interlaced=0 / bluray_compat=0 / constrained_intra=0 / bframes=3 / b_pyramid=2 / b_adapt=1 / b_bias=0 / direct=1 / weightb=1 / open_gop=0 / weightp=2 / keyint=300 / keyint_min=30 / scenecut=40 / intra_refresh=0 / rc_lookahead=40 / rc=2pass / mbtree=1 / bitrate=6000 / ratetol=1.0 / qcomp=0.60 / qpmin=3 / qpmax=69 / qpstep=4 / cplxblur=20.0 / qblur=0.5 / ip_ratio=1.40 / aq=1:1.00
Language : English
Default : Yes
Forced : No
Color primaries : BT.709
Transfer characteristics : BT.709
Matrix coefficients : BT.709

Audio #1
ID : 2
Format : AC-3
Format/Info : Audio Coding 3
Mode extension : CM (complete main)
Format settings, Endianness : Big
Codec ID : A_AC3
Duration : 1h 53mn
Bit rate mode : Constant
Bit rate : 448 Kbps
Channel(s) : 2 channels
Channel positions : Front: L R
Sampling rate : 48.0 KHz
Bit depth : 16 bits
Compression mode : Lossy
Stream size : 364 MiB (6%)
Default : Yes
Forced : No

Audio #2
ID : 3
Format : AC-3
Format/Info : Audio Coding 3
Mode extension : CM (complete main)
Format settings, Endianness : Big
Codec ID : A_AC3
Duration : 1h 53mn
Bit rate mode : Constant
Bit rate : 448 Kbps
Channel(s) : 6 channels
Channel positions : Front: L C R, Side: L R, LFE
Sampling rate : 48.0 KHz
Bit depth : 16 bits
Compression mode : Lossy
Stream size : 364 MiB (6%)
Default : No
Forced : No

Menu
00:00:00.000 : en:Chapter 01
00:05:01.968 : en: 02.Things Get Better. featuring Paul Weller
00:08:02.615 : en: 03.I Take What I Want. featuring Paul Weller and Micky Moody
00:12:26.679 : en: 04.Silas and Jerome .featuring Phil Campbell from The Temperance Movement, Ian Paice, Bernie Marsden
00:16:11.303 : en: 05. I’m Gonna Stop Drinking .featuring Phil Campbell from The Temperance Movement, Ian Paice, Bernie Marsden.
00:21:44.036 : en: 06. Soldier of Fortune (with Steve Balsamo, Sandi Thom and Micky Moody)
00:27:20.972 : en: 07.You Keep On Moving (with Glenn Hughes, Bruce Dickinson, Ian Paice, Don Airey and Micky Moody)
00:33:13.825 : en:08. Burn (with Glenn Hughes, Bruce Dickison, Ian Paice, Don Airey and Rick Wakeman)
00:41:48.038 : en: 09. Deep Purple, Mk. III: This Time Around (with Glenn Hughes)
00:49:14.284 : en: 10.Uncommon Man.
00:57:19.969 : en: 11.Above And Beyond.
01:03:58.134 : en: 12. Lazy. featuring Stephen Bentley-Klein, Violine
01:13:31.340 : en: 13. When A Blind Man Cries.
01:21:22.344 : en: 14. Perfect Strangers.
01:31:42.029 : en: 15.Black Night.
01:40:07.167 : en: 16. Hush. feat. Bruce Dickinson, Rick Wakeman, Phil Campbell, Bernie Marsden, Micky Moody
01:53:34.841 : en:Chapter 17
pb.wtf



Скачать Deep Purple and Friends - Celebrating Jon Lord: The Rock Legend через торрент http://i68.fastpic.ru/big/2014/1025/fe/3e88b421e8be1b41ffdddfc9d306dffe.jpg Скачать, смотреть онлайн Deep Purple and Friends - Celebrating Jon Lord: The Rock Legend [2014, rock, hard-n-heavy, BDRip 720p] бесплантно в хорошем качестве Год выпуска: 2014Продолжительность: ... 10 10 4
Info! Золотая раздача, скачанное не засчитывается.
Торрент: Зарегистрирован [2014-10-26 09:35] · скачан: 139 раз
Статус: √ проверено
Размер: 5.48 GB
Как cкачать? Как скачать Deep Purple and Friends - Celebrating Jon Lord: The Rock Legend через торрент | UTorrent

28-11-2019 20:33  

Отключить всю рекламу на сайте

    Дорогой пользователь! Огромная просьба, поблагодарите релизера, оцените раздачу и оставьте свои комментарий, если Вы скачали Deep Purple and Friends - Celebrating Jon Lord: The Rock Legend через торрент бесплатно!
    Комментировать посты могут только пользователи прошедшие не сложную регистрацию
    Показать сообщения:    

    Deep Purple and Friends - Celebrating Jon Lord: The Rock Legend через торрент
    Скачать бесплатно Deep Purple and Friends - Celebrating Jon Lord: The Rock Legend
    Deep Purple and Friends - Celebrating Jon Lord: The Rock Legend скачать торрент
    Deep Purple and Friends - Celebrating Jon Lord: The Rock Legend смотреть онлайн
    Cкачать фильм Deep Purple and Friends - Celebrating Jon Lord: The Rock Legend бесплатно
    Deep Purple and Friends - Celebrating Jon Lord: The Rock Legend скачать торрент в хорошем качестве
    Deep Purple and Friends - Celebrating Jon Lord: The Rock Legend смотреть онлайн бесплатно в хорошем качестве


    Вы не можете начинать темы
    Вы не можете отвечать на сообщения
    Вы не можете редактировать свои сообщения
    Вы не можете удалять свои сообщения
    Вы не можете голосовать в опросах
    Вы не можете прикреплять файлы к сообщениям
    Вы можете скачивать файлы