новый адрес пиратбит piratbit
MEGA NEWS Получи личный уникальный адрес сайта и защити себя от блокировок. Внимание количество ограничено!!!

iTunes

1+1

iTunes

мы

iTunes

1

iTunes

Чернобыль

iTunes

Ральф против интернета

Лицензия

ПШазам

Лицензия

Игра престолов

Лицензия

30
pack

ВАЖНО

!!Акция!!

Alien_RageХит недели

RePack

Resident Evil 21

ИГРА 18+

pack

RePack

Metro:Exodus

!!Акция!!

Alien_Rage

RePack

fifa19

RePack

Assassins Creed: Odyssey

RePack

NEED FOR SPEED™ PAYBACK

3 сезон

9 сезон

Бесстыжие 9 сезон

Все сериалы

все сериалы на PB.wtf

RePack

FAR CRY 5
Ребята, катастрофически не хватает 1900р. для оплаты серверов за АВГУСТ (всвязи с блокировками трафик упал в 3 раза), 1-2р., выручайте.
  

Робинзон Крузо на Марсе / Robinson Crusoe on Mars (Байрон Хэскин / Byron Haskin) [1964 г., фантастика, приключения, BDRip, Профессиональный многоголосый] pb.wtf

Робинзон Крузо на Марсе через торрент pb.wtf

Размер: 1.45 GB | Добавлен: 4 года 11 мес. назад | Торрент скачан:60 раз
Скачать  

26-10-2014 09:46 Робинзон Крузо на Марсе Скачать торрент  

Робинзон Крузо на Марсе / Robinson Crusoe on Mars
Год выпуска: 1964
Страна: США
Жанр: фантастика, приключения
Продолжительность: 01:49:57
Перевод: Профессиональный многоголосый

Режиссер: Байрон Хэскин / Byron Haskin

В ролях: Пол Манти, Виктор Лундин, Адам Уэст, Вули Манки

Краткое описание фильма
Во время миссии орбитального облёта планеты Марс астронавтам — коммандеру Крису Дрэйперу и полковнику Дэну МакРиди — после неудачных маневров уклонения от метеорита пришлось покинуть космический корабль в аварийных капсулах и приземлиться на поверхность красной планеты. При этом полковник МакРиди погибает, и Дрейпер остаётся в полном одиночестве, хотя среди обломков капсулы полковника он находит обезьянку Мону. Но несмотря на все проблемы, Крис начинает борьбу за выживание на Марсе, как истинный Робинзон. Путешествуя по планете в поисках пищи и воды, он обнаруживает останки инопланетян. Спустя какое-то время на планету приземляется странный космический корабль. Вскоре выясняется, что это инопланетяне, и они прибыли уничтожить сбежавшего с Ориона раба. Крис спасает его и нарекает, как нетрудно догадаться, Пятницей.

Качество: BDRip
Формат: AVI
Видео кодек: XviD
Аудио кодек: AC3
Видео: 720x304 (2.37:1), 23,976 fps, XviD build 65 ~1687 kbps avg, 0.32 bit/pixel
Аудио#1: 48 kHz, AC3 Dolby Digital, 2/0 (L,R), ~192.00 kbps avg























General
Complete name : H:\КЛАССИКА США\Робинзон Крузо на Марсе.avi
Format : AVI
Format/Info : Audio Video Interleave
File size : 1.45 GiB
Duration : 1h 49mn
Overall bit rate : 1 889 Kbps
Movie name : Робинзон Крузо на Марсе / Robinson Crusoe on Mars (1964) BDRip
Director : sociolog_melvas
Genre : фантастика, приключения
Writing application : VirtualDubMod 1.5.10.2 (build 2540/release)
Comment : 15.10.2014

Video
ID : 0
Format : MPEG-4 Visual
Format profile : Advanced Simple@L5
Format settings, BVOP : Yes
Format settings, QPel : No
Format settings, GMC : No warppoints
Format settings, Matrix : Custom
Codec ID : XVID
Codec ID/Hint : XviD
Duration : 1h 49mn
Bit rate : 1 687 Kbps
Width : 720 pixels
Height : 304 pixels
Display aspect ratio : 2.35:1
Frame rate : 23.976 fps
Color space : YUV
Chroma subsampling : 4:2:0
Bit depth : 8 bits
Scan type : Progressive
Compression mode : Lossy
Bits/(Pixel*Frame) : 0.322
Stream size : 1.30 GiB (89%)
Writing library : XviD 65

Audio
ID : 1
Format : AC-3
Format/Info : Audio Coding 3
Mode extension : CM (complete main)
Format settings, Endianness : Big
Codec ID : 2000
Duration : 1h 49mn
Bit rate mode : Constant
Bit rate : 192 Kbps
Channel(s) : 2 channels
Channel positions : Front: L R
Sampling rate : 48.0 KHz
Bit depth : 16 bits
Compression mode : Lossy
Stream size : 151 MiB (10%)
Alignment : Split accross interleaves
Interleave, duration : 42 ms (1.00 video frame)
Interleave, preload duration : 500 ms
ДОСТОЙНЫЙ РЕМЕЙК НА РОБИНЗОНА КРУЗО ДАНИЭЛЯ ДЭФО pb.wtf



Скачать Робинзон Крузо на Марсе через торрент http://i67.fastpic.ru/big/2014/1026/b2/cd0ff99e86637922244b3830c28402b2.jpeg Скачать фильм Робинзон Крузо на Марсе через торрент бесплантно в хорошем качестве В ролях: Пол Манти, Виктор Лундин, Адам Уэст, Вули МанкиКраткое описание фильмаВо время миссии орбитального облёта планеты Марс астронавтам ... 10 10 2
Торрент: Зарегистрирован [2014-10-26 09:46] · скачан: 60 раз
Статус: √ проверено
Размер: 1.45 GB
Как cкачать? Как скачать Робинзон Крузо на Марсе через торрент | qTorrent

% Раздел Тема Автор DL S | L
Классика зарубежного кино [ 2.18 GB ] Робинзон Крузо на Марсе / Robinson Crusoe on Mars [1964 BDRip] MVO koenig Скачать
1 | 0


Последний раз редактировалось: Magnat (2014-10-26 10:03), всего редактировалось 1 раз


>> Регистрируемся здесь <<






Отзывы и комментарии о схеме читаем и пишем здесь: ---> Отзывы и комментарии о схеме

Новые благодарочки в телеграм довольных пользователей:
скриншот   скриншот   скриншот   скриншот   скриншот

26-10-2014 09:51 Робинзон Крузо на Марсе Скачать торрент  

Любители фантастики не ждите сверхошеломляющих спецэфектов, не забывайте это 64 год. Но в коллекции такой фильм иметь надо, даже просто из уважения к американской классики. У нас на такой уровень сьемок вышли лет 10 назад :)))))pb.wtf



    Дорогой пользователь! Огромная просьба, поблагодарите релизера, оцените раздачу и оставьте свои комментарий, если Вы скачали Робинзон Крузо на Марсе через торрент бесплатно! Внесите свою лепту в развитие PiratBit!
    Комментировать посты могут только пользователи прошедшие не сложную регистрацию
    Показать сообщения:    

    Робинзон Крузо на Марсе через торрент
    Скачать бесплатно Робинзон Крузо на Марсе
    Робинзон Крузо на Марсе скачать торрент
    Робинзон Крузо на Марсе смотреть онлайн
    Cкачать фильм Робинзон Крузо на Марсе бесплатно
    Робинзон Крузо на Марсе скачать торрент в хорошем качестве
    Робинзон Крузо на Марсе смотреть онлайн бесплатно в хорошем качестве


    Вы не можете начинать темы
    Вы не можете отвечать на сообщения
    Вы не можете редактировать свои сообщения
    Вы не можете удалять свои сообщения
    Вы не можете голосовать в опросах
    Вы не можете прикреплять файлы к сообщениям
    Вы можете скачивать файлы