Ссылка на приватное зеркало нашего сайта всего за 1$. Внимание количество ограничено!!!

2 сезон

iTunes

1 сезон

1

2 сезон

2 сезон

iTunes

1 сезон

RePack

30

Новинка

ВАЖНО

ИГРА 18+

pack

RePack

MK11
pack

Забери бонус

RePack

jed

!!Акция!!

Alien_Rage

RePack

fifa19

RePack

Assassins Creed: Odyssey

RePack

NEED FOR SPEED™ PAYBACK

4 сезон

9 сезон

Бесстыжие 9 сезон

Все сериалы

все сериалы на PB.wtf

RePack

FAR CRY 5
  

На том свете: Между жизнью и смертью / Kingdom Come [2014, Ужасы, BDRip 1080p] VO pb.wtf

На том свете: Между жизнью и смертью через торрент pb.wtf

Размер: 7.78 GB | Добавлен: 6 лет 1 мес. назад | Торрент скачан:53 раза
Скачать  

26-10-2014 11:45 На том свете: Между жизнью и смертью Скачать торрент  


Информация о фильме

Название: На том свете: Между жизнью и смертью

Оригинальное название: Kingdom Come

Год выхода: 2014

Выпущено: Канада / Matchbox Pictures Inc.

Продолжительность: 01:38:33

Перевод: Любительское (одноголосое) [ХиХиДок]

Жанр: Ужасы

Режиссер: Грег А. Сейджер

В ролях: Райан Баррет, Камилла Холлет-Френч, Джейсон Марторино, Уильям Фоли, Кэти Ульман, Элли О’Брайен, Брюс Тернер

Описание:

Несколько незнакомых друг с другом людей приходят в себя в старом заброшенном госпитале. Никто не может вспомнить, как он сюда попал, и никто не может найти отсюда выход. Зато вскоре они понимают, что находятся в этом месте не одни - их преследуют какие-то сверхъестественные силы...



Официальный сайт

Файл

Формат: MKV

Качество: BDRip 1080p

Видео кодек: H.264

Аудио кодек: AC3

Видео: MPEG-4 AVC, 9603 Kбит/с, 1920x816, 23.976 fps

Аудио: Русский (AC3, 2 ch, 192 Кбит/с) 48.0 KHz

Аудио: английский (DTS, 6 ch, 1510 Кбит/с) 48.0 KHz

Субтитры: Английские

Семпл


General

Kingdom.Come.2014.Blu.Ray.1080p.CINEMANIA.mkv

Format : Matroska

Format version : Version 4 / Version 2

File size : 7.78 GiB

Duration : 1h 38mn

Overall bit rate : 11.3 Mbps

Movie name : Release Group CINEMANIA

Encoded date : UTC 2014-10-25 21:34:44

Writing application : mkvmerge v7.2.0 ('On Every Street') 64bit built on Sep 13 2014 15:52:10

Writing library : libebml v1.3.0 + libmatroska v1.4.1

Video

ID : 1

Format : AVC

Format/Info : Advanced Video Codec

Format profile : High@L4.1

Format settings, CABAC : Yes

Format settings, ReFrames : 5 frames

Codec ID : V_MPEG4/ISO/AVC

Duration : 1h 38mn

Bit rate : 9 603 Kbps

Width : 1 920 pixels

Height : 816 pixels

Display aspect ratio : 2.35:1

Frame rate mode : Constant

Frame rate : 23.976 fps

Color space : YUV

Chroma subsampling : 4:2:0

Bit depth : 8 bits

Scan type : Progressive

Bits/(Pixel*Frame) : 0.256

Stream size : 6.45 GiB (83%)

Title : Release Group CINEMANIA

Writing library : x264 core 142 r2479 dd79a61

Encoding settings : cabac=1 / ref=5 / deblock=1:0:0 / analyse=0x3:0x133 / me=umh / subme=7 / psy=1 / psy_rd=1.00:0.00 / mixed_ref=1 / me_range=16 / chroma_me=1 / trellis=1 / 8x8dct=1 / cqm=0 / deadzone=21,11 / fast_pskip=0 / chroma_qp_offset=-2 / threads=18 / lookahead_threads=3 / sliced_threads=0 / nr=0 / decimate=1 / interlaced=0 / bluray_compat=0 / constrained_intra=0 / bframes=3 / b_pyramid=2 / b_adapt=1 / b_bias=0 / direct=1 / weightb=1 / open_gop=0 / weightp=2 / keyint=240 / keyint_min=23 / scenecut=40 / intra_refresh=0 / rc_lookahead=40 / rc=2pass / mbtree=1 / bitrate=9603 / ratetol=1.0 / qcomp=0.60 / qpmin=0 / qpmax=69 / qpstep=4 / cplxblur=20.0 / qblur=0.5 / ip_ratio=1.40 / aq=1:1.00

Language : English

Default : Yes

Forced : No

Audio #1

ID : 2

Format : AC-3

Format/Info : Audio Coding 3

Mode extension : CM (complete main)

Format settings, Endianness : Big

Codec ID : A_AC3

Duration : 1h 38mn

Bit rate mode : Constant

Bit rate : 192 Kbps

Channel(s) : 2 channels

Channel positions : Front: L R

Sampling rate : 48.0 KHz

Bit depth : 16 bits

Compression mode : Lossy

Stream size : 135 MiB (2%)

Title : ХиХиДок

Language : Russian

Default : Yes

Forced : Yes

Audio #2

ID : 3

Format : DTS

Format/Info : Digital Theater Systems

Mode : 16

Format settings, Endianness : Big

Codec ID : A_DTS

Duration : 1h 38mn

Bit rate mode : Constant

Bit rate : 1 509 Kbps

Channel(s) : 6 channels

Channel positions : Front: L C R, Side: L R, LFE

Sampling rate : 48.0 KHz

Bit depth : 24 bits

Compression mode : Lossy

Stream size : 1.04 GiB (13%)

Language : English

Default : No

Forced : No

Text #1

ID : 4

Format : UTF-8

Codec ID : S_TEXT/UTF8

Codec ID/Info : UTF-8 Plain Text

Language : Russian

Default : Yes

Forced : Yes

Text #2

ID : 5

Format : UTF-8

Codec ID : S_TEXT/UTF8

Codec ID/Info : UTF-8 Plain Text

Language : English

Default : No

Forced : No

Menu

00:00:00.000 : en:00:00:00.000

00:14:08.097 : en:00:14:08.097

00:26:50.108 : en:00:26:50.108

00:34:13.969 : en:00:34:13.969

00:45:57.088 : en:00:45:57.088

00:58:05.148 : en:00:58:05.148

01:10:44.073 : en:01:10:44.073

01:22:28.026 : en:01:22:28.026

01:34:29.038 : en:01:34:29.038
Релиз от: pb.wtf



Скачать На том свете: Между жизнью и смертью через торрент http://i68.fastpic.ru/big/2014/1026/ff/7960e8e40b405f53d89b066fc74045ff.jpg Скачать фильм На том свете: Между жизнью и смертью через торрент бесплантно в хорошем качестве Описание: Несколько незнакомых друг с другом людей приходят в себя в старом заброшенном госпитале. Никто не может вспомнить, как он сюда ... 10 10 4
Торрент: Зарегистрирован [2014-10-26 11:45] · скачан: 53 раз
Статус: T временная
Размер: 7.78 GB
Как cкачать? Как скачать На том свете: Между жизнью и смертью через торрент | qTorrent

% Раздел Тема Автор DL S | L
T Фильмы 2014 (Звук TS, Cam, VO, DVO) [ 1.46 GB ] На том свете: Между жизнью и смертью / Kingdom Come [2014 HDRip] VO Ворон Скачать
1 | 0

28-11-2019 20:33  

Отключить всю рекламу на сайте

    Дорогой пользователь! Огромная просьба, поблагодарите релизера, оцените раздачу и оставьте свои комментарий, если Вы скачали На том свете: Между жизнью и смертью через торрент бесплатно! Внесите свою лепту в развитие PiratBit!
    Комментировать посты могут только пользователи прошедшие не сложную регистрацию
    Показать сообщения:    

    На том свете: Между жизнью и смертью через торрент
    Скачать бесплатно На том свете: Между жизнью и смертью
    На том свете: Между жизнью и смертью скачать торрент
    На том свете: Между жизнью и смертью смотреть онлайн
    Cкачать фильм На том свете: Между жизнью и смертью бесплатно
    На том свете: Между жизнью и смертью скачать торрент в хорошем качестве
    На том свете: Между жизнью и смертью смотреть онлайн бесплатно в хорошем качестве


    Вы не можете начинать темы
    Вы не можете отвечать на сообщения
    Вы не можете редактировать свои сообщения
    Вы не можете удалять свои сообщения
    Вы не можете голосовать в опросах
    Вы не можете прикреплять файлы к сообщениям
    Вы можете скачивать файлы