Ссылка на приватное зеркало нашего сайта всего за 1$. Внимание количество ограничено!!!

2 сезон

iTunes

1 сезон

1

iTunes

iTunes

iTunes

1 сезон

RePack

30

ИГРА 18+

pack

ВАЖНО

!!Акция!!

Alien_RageХит недели

RePack

MK11
pack

Забери бонус

RePack

jed

!!Акция!!

Alien_Rage

RePack

fifa19

RePack

Assassins Creed: Odyssey

RePack

NEED FOR SPEED™ PAYBACK

4 сезон

9 сезон

Бесстыжие 9 сезон

Все сериалы

все сериалы на PB.wtf

RePack

FAR CRY 5
  

Куколка / Chrysalis (Джон Клейн / John Klein) [2014, США, ужасы, фантастика, драма, WEB-DLRip,Любительский (двухголосый)[den904, DeadSno] pb.wtf

Куколка через торрент pb.wtf

Размер: 1.03 GB | Добавлен: 5 лет 11 мес. назад | Торрент скачан:407 раз
Скачать  

26-10-2014 12:16 Куколка Скачать торрент  

Куколка / Chrysalis

Год выпуска: 2014
Страна: США
Жанр: ужасы, фантастика, драма
Продолжительность: 01:39:04
Перевод: Любительский (двухголосый)[den904, DeadSno]
Субтитры: Нет
Режиссер: Джон Клейн / John Klein
В ролях: Сара Горски (Penelope), Коул Саймон (Joshua), Таня Таи МакБрайд (Abira), Клэйтон Стэмпер (Survivor), Кейт Блэк-Спенс (Anna Costell), Ник Кардифф (Bitten Man), Jesse Gentry (Man at Window), Mark Soloff (Infected), Mike Molenda (Corpse), Moira Begale (Infected), Matt Bendickson (Infected), Carole Bernas (Infected)
Описание:
Джошуа и Пенелопа - выжившие после распространения смертельной инфекции, уничтожившей человечество 25 лет назад. Когда они сталкиваются с еще одной выжившей, Авирой, их жизни навсегда меняются, поскольку им приходится противостоять неожиданному наплыву зараженных, которые, казалось бы, начали исчезать...
Рейтинг
MPAA: R - Лицам до 17 лет обязательно присутствие взрослого
Качество: WEB-DLRip
Формат: AVI
Видео кодек: XviD
Аудио кодек:AC3
Видео: XviD, 720x304 (2.35:1), 1095 kbps, 25 fps, 0,200 bpp
Аудио №1: AC3 / 2.0 / 48 kHz / 192 kbps / Русский
Аудио №2: AC3 / 2.0 / 48 kHz / 192 kbps / английский

General
Complete name : D:\Торенты\Chrysalis.2014.WEB-DLRip.KinoRay.avi
Format : AVI
Format/Info : Audio Video Interleave
Format profile : OpenDML
Format settings : rec
File size : 1.03 GiB
Duration : 1h 39mn
Overall bit rate : 1 487 Kbps
Writing application : AVI-Mux GUI 1.17.8.3, Feb 16 201019:42:50

Video
ID : 0
Format : MPEG-4 Visual
Format profile : Advanced Simple@L5
Format settings, BVOP : No
Format settings, QPel : No
Format settings, GMC : No warppoints
Format settings, Matrix : Custom
Codec ID : XVID
Codec ID/Hint : XviD
Duration : 1h 39mn
Bit rate : 1 095 Kbps
Width : 720 pixels
Height : 304 pixels
Display aspect ratio : 2.35:1
Frame rate : 25.000 fps
Color space : YUV
Chroma subsampling : 4:2:0
Bit depth : 8 bits
Scan type : Progressive
Compression mode : Lossy
Bits/(Pixel*Frame) : 0.200
Stream size : 776 MiB (74%)
Writing library : XviD 1.2.1 (UTC 2008-12-04)

Audio #1
ID : 1
Format : AC-3
Format/Info : Audio Coding 3
Mode extension : CM (complete main)
Codec ID : 2000
Duration : 1h 39mn
Bit rate mode : Constant
Bit rate : 192 Kbps
Channel(s) : 2 channels
Channel positions : Front: L R
Sampling rate : 48.0 KHz
Bit depth : 16 bits
Compression mode : Lossy
Stream size : 136 MiB (13%)
Alignment : Aligned on interleaves
Interleave, duration : 64 ms (1.60 video frames)
Interleave, preload duration : 192 ms
Title : 1_rus

Audio #2
ID : 2
Format : AC-3
Format/Info : Audio Coding 3
Mode extension : CM (complete main)
Codec ID : 2000
Duration : 1h 39mn
Bit rate mode : Constant
Bit rate : 192 Kbps
Channel(s) : 2 channels
Channel positions : Front: L R
Sampling rate : 48.0 KHz
Bit depth : 16 bits
Compression mode : Lossy
Stream size : 136 MiB (13%)
Alignment : Aligned on interleaves
Interleave, duration : 64 ms (1.60 video frames)
Interleave, preload duration : 192 ms
Title : 2

Text
ID : 3
Stream size : 456 Bytes (0%)
Title : 3_rus
pb.wtf



Скачать Куколка через торрент http://i64.fastpic.ru/big/2014/1026/76/549d10242554d08f7c413c4d02fbac76.jpg Скачать фильм Куколка через торрент бесплантно в хорошем качестве Описание: Джошуа и Пенелопа - выжившие после распространения смертельной инфекции, уничтожившей человечество 25 лет назад. Когда они ... 8.6 10 11
Торрент: Зарегистрирован [2014-10-26 12:16] · скачан: 407 раз
Статус: T временная
Размер: 1.03 GB
Как cкачать? Как скачать Куколка через торрент | qTorrent

28-11-2019 20:33  

Отключить всю рекламу на сайте

13-03-2015 08:38 Куколка Скачать торрент  

Фильм посмотрел с перемотками. Затянуть фильм на 90 мин и всё. 5 из 10.... Финал понравился. В отличии от 50 оттенков серого, есть смысл! )))pb.wtf



    Дорогой пользователь! Огромная просьба, поблагодарите релизера, оцените раздачу и оставьте свои комментарий, если Вы скачали Куколка через торрент бесплатно! Внесите свою лепту в развитие PiratBit!
    Комментировать посты могут только пользователи прошедшие не сложную регистрацию
    Показать сообщения:    

    Куколка через торрент
    Скачать бесплатно Куколка
    Куколка скачать торрент
    Куколка смотреть онлайн
    Cкачать фильм Куколка бесплатно
    Куколка скачать торрент в хорошем качестве
    Куколка смотреть онлайн бесплатно в хорошем качестве


    Вы не можете начинать темы
    Вы не можете отвечать на сообщения
    Вы не можете редактировать свои сообщения
    Вы не можете удалять свои сообщения
    Вы не можете голосовать в опросах
    Вы не можете прикреплять файлы к сообщениям
    Вы можете скачивать файлы