Ссылка на приватное зеркало нашего сайта всего за 1$. Внимание количество ограничено!!!

2 сезон

iTunes

1 сезон

1

iTunes

iTunes

iTunes

1 сезон

RePack

30

ИГРА 18+

pack

ВАЖНО

!!Акция!!

Alien_RageХит недели

RePack

MK11
pack

Забери бонус

RePack

jed

!!Акция!!

Alien_Rage

RePack

fifa19

RePack

Assassins Creed: Odyssey

RePack

NEED FOR SPEED™ PAYBACK

4 сезон

9 сезон

Бесстыжие 9 сезон

Все сериалы

все сериалы на PB.wtf

RePack

FAR CRY 5
  

Поворот не туда 6: Последний курорт / Wrong Turn 6: Last Resort (Валерий Милев / Valeri Milev) [2014, США, ужасы, BDRip 720p, Профессиональное (многоголосое) Официальный[Unrated] pb.wtf

Поворот не туда 6: Последний курорт через торрент pb.wtf

Размер: 4.5 GB | Добавлен: 5 лет 11 мес. назад | Торрент скачан:310 раз
Скачать  

26-10-2014 12:30 Поворот не туда 6: Последний курорт Скачать торрент  

Информация о фильме

Название: Поворот не туда 6: Последний курорт

Оригинальное название: Wrong Turn 6: Last Resort

Год выхода: 2014

Выпущено: США

Продолжительность: 01:30:30

Озвучивание: Профессиональное (многоголосое) Официальный

Жанр: ужасы

Режиссер: Валерий Милев

В ролях: Сэди Кац, Anthony Ilott, Акилла Золл, Ролло Скиннер, Билли Эшворт, Роксанна Паллетт, Крис Джарвис, Асен Асенов, Гарри Белчер, Риз Койро

Описание: В поисках внезапного и таинственного наследства, Дэнни и его друзья оказываются в Хобб Спрингс, на заброшенном курорте в горах Западной Вирджинии. Вскоре Дэнни узнает, что его родственники, которых он никогда не знал, вели довольно странный образ жизни, основывающийся на каннибализме. Дэнни придется выбирать между друзьями и родственниками.



Файл

Формат: MKV

Качество: BDRip 720p

Видео кодек: AVC

Аудио кодек: AC3, DTS

Видео: 5500 kb/s, 1280x720, 23,976 fps

Аудио: Russian: AC3, 192 kb/s (2 ch) / 48 kHz

Аудио: English: DTS, 1510 kb/s (6 ch) / 48kHz

General
Unique ID : 238257853166332909121284239690766372945 (0xB33ECB1B98D09482AFB2241C3F965051)
Complete name : D:\Торенты\Povorot.ne.tyda.6.2014.UNRATED.BDRip.720p.mkv
Format : Matroska
Format version : Version 4 / Version 2
File size : 4.50 GiB
Duration : 1h 30mn
Overall bit rate : 7 115 Kbps
Encoded date : UTC 2014-10-20 07:36:28
Writing application : mkvmerge v6.1.0 ('Old Devil') built on Mar 4 2013 09:10:42
Writing library : libebml v1.3.0 + libmatroska v1.4.0

Video
ID : 1
Format : AVC
Format/Info : Advanced Video Codec
Format profile : High@L4.1
Format settings, CABAC : Yes
Format settings, ReFrames : 4 frames
Codec ID : V_MPEG4/ISO/AVC
Duration : 1h 30mn
Bit rate : 5 500 Kbps
Width : 1 280 pixels
Height : 720 pixels
Display aspect ratio : 16:9
Frame rate mode : Constant
Frame rate : 23.976 fps
Color space : YUV
Chroma subsampling : 4:2:0
Bit depth : 8 bits
Scan type : Progressive
Bits/(Pixel*Frame) : 0.249
Stream size : 3.33 GiB (74%)
Writing library : x264 core 130 r2273 b3065e6
Encoding settings : cabac=1 / ref=1 / deblock=1:0:0 / analyse=0x3:0x113 / me=hex / subme=7 / psy=1 / psy_rd=1.00:0.00 / mixed_ref=0 / me_range=16 / chroma_me=1 / trellis=0 / 8x8dct=1 / cqm=0 / deadzone=21,11 / fast_pskip=1 / chroma_qp_offset=0 / threads=6 / lookahead_threads=2 / sliced_threads=0 / nr=0 / decimate=1 / interlaced=0 / bluray_compat=0 / constrained_intra=0 / bframes=3 / b_pyramid=2 / b_adapt=1 / b_bias=0 / direct=1 / weightb=1 / open_gop=0 / weightp=1 / keyint=240 / keyint_min=24 / scenecut=40 / intra_refresh=0 / rc_lookahead=10 / rc=abr / mbtree=1 / bitrate=5500 / ratetol=1.0 / qcomp=0.60 / qpmin=0 / qpmax=69 / qpstep=4 / vbv_maxrate=62500 / vbv_bufsize=78125 / nal_hrd=none / ip_ratio=1.40 / aq=1:1.00
Language : English
Default : Yes
Forced : No
Color primaries : BT.709
Transfer characteristics : BT.709
Matrix coefficients : BT.709

Audio #1
ID : 2
Format : AC-3
Format/Info : Audio Coding 3
Mode extension : CM (complete main)
Format settings, Endianness : Big
Codec ID : A_AC3
Duration : 1h 30mn
Bit rate mode : Constant
Bit rate : 192 Kbps
Channel(s) : 2 channels
Channel positions : Front: L R
Sampling rate : 48.0 KHz
Bit depth : 16 bits
Compression mode : Lossy
Stream size : 124 MiB (3%)
Language : Russian
Default : Yes
Forced : No

Audio #2
ID : 3
Format : DTS
Format/Info : Digital Theater Systems
Mode : 16
Format settings, Endianness : Big
Codec ID : A_DTS
Duration : 1h 30mn
Bit rate mode : Constant
Bit rate : 1 509 Kbps
Channel(s) : 6 channels
Channel positions : Front: L C R, Side: L R, LFE
Sampling rate : 48.0 KHz
Bit depth : 24 bits
Compression mode : Lossy
Stream size : 977 MiB (21%)
Language : English
Default : No
Forced : No
pb.wtf



Скачать Поворот не туда 6: Последний курорт через торрент http://i68.fastpic.ru/big/2014/1020/1f/eef7673bc033f25a2795d44e6ce4601f.jpg Скачать фильм Поворот не туда 6: Последний курорт через торрент бесплантно в хорошем качестве Описание: В поисках внезапного и таинственного наследства, Дэнни и его друзья оказываются в Хобб Спрингс, на заброшенном курорте в горах ... 9.6 10 9
Торрент: Зарегистрирован [2014-10-26 12:30] · скачан: 310 раз
Статус: √ проверено
Размер: 4.5 GB
Как cкачать? Как скачать Поворот не туда 6: Последний курорт через торрент | qTorrent

% Раздел Тема Автор DL S | L
Фильмы 2014 [DVDrip, WEB-DLRip, HDrip] [ 699 MB ] Поворот не туда 6: Последний курорт / Wrong Turn 6: Last Resort [2014 HDRip Профессиональное Официальный Anonymous Скачать
1 | 0
Фильмы [HD 720p, 1080p] (Хороший звук DUB, MVO) [ 8.03 GB ] Поворот не туда 6: Последний курорт / Wrong Turn 6: Last Resort [2014 BDRip 1080p Профессиональное Официальный[Unrated] Ворон Скачать
1 | 0

28-11-2019 20:33  

Отключить всю рекламу на сайте

26-10-2014 13:40 Поворот не туда 6: Последний курорт Скачать торрент  

порнуха походу (_._) (. ) ( .)pb.wtf



26-10-2014 15:41 Поворот не туда 6: Последний курорт Скачать торрент  

Клубничка с элементами ужаса))pb.wtf



27-10-2014 20:53 Поворот не туда 6: Последний курорт Скачать торрент  

Поворот не туда уже не тот, 1-2 ище норм 3 куда не шло, ну дальше полный провал.pb.wtf



    Дорогой пользователь! Огромная просьба, поблагодарите релизера, оцените раздачу и оставьте свои комментарий, если Вы скачали Поворот не туда 6: Последний курорт через торрент бесплатно! Внесите свою лепту в развитие PiratBit!
    Комментировать посты могут только пользователи прошедшие не сложную регистрацию
    Показать сообщения:    

    Поворот не туда 6: Последний курорт через торрент
    Скачать бесплатно Поворот не туда 6: Последний курорт
    Поворот не туда 6: Последний курорт скачать торрент
    Поворот не туда 6: Последний курорт смотреть онлайн
    Cкачать фильм Поворот не туда 6: Последний курорт бесплатно
    Поворот не туда 6: Последний курорт скачать торрент в хорошем качестве
    Поворот не туда 6: Последний курорт смотреть онлайн бесплатно в хорошем качестве


    Вы не можете начинать темы
    Вы не можете отвечать на сообщения
    Вы не можете редактировать свои сообщения
    Вы не можете удалять свои сообщения
    Вы не можете голосовать в опросах
    Вы не можете прикреплять файлы к сообщениям
    Вы можете скачивать файлы