Ссылка на приватное зеркало нашего сайта всего за 1$. Внимание количество ограничено!!!

2 сезон

iTunes

1 сезон

1

iTunes

iTunes

iTunes

1 сезон

RePack

30

ИГРА 18+

pack

ВАЖНО

!!Акция!!

Alien_RageХит недели

RePack

MK11
pack

Забери бонус

RePack

jed

!!Акция!!

Alien_Rage

RePack

fifa19

RePack

Assassins Creed: Odyssey

RePack

NEED FOR SPEED™ PAYBACK

4 сезон

9 сезон

Бесстыжие 9 сезон

Все сериалы

все сериалы на PB.wtf

RePack

FAR CRY 5
  

На том свете: Между жизнью и смертью / Kingdom Come [2014, Ужасы, HDRip] VO pb.wtf

На том свете: Между жизнью и смертью через торрент pb.wtf

Размер: 1.46 GB | Добавлен: 5 лет 11 мес. назад | Торрент скачан:305 раз
Скачать  

26-10-2014 12:43 На том свете: Между жизнью и смертью Скачать торрент  

Информация о фильме

Название: На том свете: Между жизнью и смертью

Оригинальное название: Kingdom Come

Год выхода: 2014

Выпущено: Канада

Продолжительность: 01:38:31

Озвучивание: Любительское (одноголосое) [xixidok]

Жанр: ужасы

Режиссер: Грег А. Сейджер

В ролях: Райан Баррет, Камилла Холлет-Френч, Джейсон Марторино, Уильям Фоли, Кэти Ульман, Элли О’Брайен, Брюс Тернер

Описание: Группа незнакомых людей просыпаются в ловушке, внутри старой заброшенной психиатрической больницы. Они сталкиваются со сверхъестественными силами.



Файл

Качество: HDRip

Формат:AVI

Видео кодек: XviD

Аудио кодек:MP3

Видео: 720x304 (2.35:1), 23.976 fps, 1 659 Kbps (0.316 bit/pixel)

Аудио1: Russian: MP3, 44.1 KHz, 2 ch, 192 Kbps, CBR

Аудио2: English: 48.0 KHz, 2 ch, 256 Kbps, CBR

General
Complete name : D:\Торенты\Kingdom.Come.2014.HDRip.1500mb.avi
Format : AVI
Format/Info : Audio Video Interleave
File size : 1.46 GiB
Duration : 1h 38mn
Overall bit rate : 2 121 Kbps
Writing application : VirtualDubModRus 1.5.10.2 (build 2542/release)
Writing library : VirtualDubMod build 2542/release

Video
ID : 0
Format : MPEG-4 Visual
Format profile : Advanced Simple@L5
Format settings, BVOP : 2
Format settings, QPel : No
Format settings, GMC : No warppoints
Format settings, Matrix : Default (H.263)
Muxing mode : Packed bitstream
Codec ID : XVID
Codec ID/Hint : XviD
Duration : 1h 38mn
Bit rate : 1 659 Kbps
Width : 720 pixels
Height : 304 pixels
Display aspect ratio : 2.35:1
Frame rate : 23.976 fps
Color space : YUV
Chroma subsampling : 4:2:0
Bit depth : 8 bits
Scan type : Progressive
Compression mode : Lossy
Bits/(Pixel*Frame) : 0.316
Stream size : 1.14 GiB (78%)
Writing library : XviD 64

Audio #1
ID : 1
Format : MPEG Audio
Format version : Version 1
Format profile : Layer 3
Codec ID : 55
Codec ID/Hint : MP3
Duration : 1h 38mn
Bit rate mode : Constant
Bit rate : 192 Kbps
Channel(s) : 2 channels
Sampling rate : 44.1 KHz
Compression mode : Lossy
Delay relative to video : 4ms
Stream size : 135 MiB (9%)
Alignment : Split accross interleaves
Interleave, duration : 42 ms (1.00 video frame)
Interleave, preload duration : 500 ms

Audio #2
ID : 2
Format : MPEG Audio
Format version : Version 1
Format profile : Layer 3
Codec ID : 55
Codec ID/Hint : MP3
Duration : 1h 38mn
Bit rate mode : Constant
Bit rate : 256 Kbps
Channel(s) : 2 channels
Sampling rate : 48.0 KHz
Compression mode : Lossy
Stream size : 180 MiB (12%)
Alignment : Aligned on interleaves
Interleave, duration : 42 ms (1.00 video frame)
Interleave, preload duration : 504 ms
Writing library : LAME3.99r
Encoding settings : -m s -V 4 -q 0 -lowpass 19.7
pb.wtf



Скачать На том свете: Между жизнью и смертью через торрент http://i66.fastpic.ru/big/2014/1026/6a/7a767ac1031d2f66c936d8d0f3f5e96a.jpg Скачать фильм На том свете: Между жизнью и смертью через торрент бесплантно в хорошем качестве Описание: Группа незнакомых людей просыпаются в ловушке, внутри старой заброшенной психиатрической больницы. Они сталкиваются со ... 10 10 6
Торрент: Зарегистрирован [2014-10-26 12:43] · скачан: 305 раз
Статус: T временная
Размер: 1.46 GB
Как cкачать? Как скачать На том свете: Между жизнью и смертью через торрент | qTorrent

% Раздел Тема Автор DL S | L
T Фильмы [HD 720p, 1080p] (Звук Cam, VO, DVO) [ 7.78 GB ] На том свете: Между жизнью и смертью / Kingdom Come [2014 BDRip 1080p] VO Ворон Скачать
1 | 0

28-11-2019 20:33  

Отключить всю рекламу на сайте

26-10-2014 14:13 На том свете: Между жизнью и смертью Скачать торрент  

Всегда интересовал вопрос-а что делала группа людей в заброшенной психбольнице?Бл...,как же обрыдли эти нудные пиндосские сюжеты!pb.wtf



26-10-2014 15:20 На том свете: Между жизнью и смертью Скачать торрент  

Stopper68 писал(а):

Всегда интересовал вопрос-а что делала группа людей в заброшенной психбольнице?Бл...,как же обрыдли эти нудные пиндосские сюжеты!

блин я думал такое вообще смотрят не из-за сюжета).
предложи им новенькое что нибудь , ты нужен им....pb.wtf



26-10-2014 17:29 На том свете: Между жизнью и смертью Скачать торрент  

Очередной Рикер? С самого начала сомневался, но, увы.... Рикер все же круче.pb.wtf



    Дорогой пользователь! Огромная просьба, поблагодарите релизера, оцените раздачу и оставьте свои комментарий, если Вы скачали На том свете: Между жизнью и смертью через торрент бесплатно! Внесите свою лепту в развитие PiratBit!
    Комментировать посты могут только пользователи прошедшие не сложную регистрацию
    Показать сообщения:    

    На том свете: Между жизнью и смертью через торрент
    Скачать бесплатно На том свете: Между жизнью и смертью
    На том свете: Между жизнью и смертью скачать торрент
    На том свете: Между жизнью и смертью смотреть онлайн
    Cкачать фильм На том свете: Между жизнью и смертью бесплатно
    На том свете: Между жизнью и смертью скачать торрент в хорошем качестве
    На том свете: Между жизнью и смертью смотреть онлайн бесплатно в хорошем качестве


    Вы не можете начинать темы
    Вы не можете отвечать на сообщения
    Вы не можете редактировать свои сообщения
    Вы не можете удалять свои сообщения
    Вы не можете голосовать в опросах
    Вы не можете прикреплять файлы к сообщениям
    Вы можете скачивать файлы