Ссылка на приватное зеркало всего за 1$. Внимание количество ограничено!!!

iTunes

iTunes

iTunes

1

iTunes

iTunes

iTunes

iTunes

iTunes

30
pack

$ от Little Big

ВАЖНО

!!Акция!!

Alien_RageХит недели

RePack

Resident Evil 21

ИГРА 18+

pack

RePack

jed

!!Акция!!

Alien_Rage

RePack

fifa19

RePack

Assassins Creed: Odyssey

RePack

NEED FOR SPEED™ PAYBACK

4 сезон

9 сезон

Бесстыжие 9 сезон

Все сериалы

все сериалы на PB.wtf

RePack

FAR CRY 5
  

Пришельцы / Extraterrestrial (Колин Минихан) [2014 г., ужасы, фантастика, WEB-DL 720p] MVO pb.wtf

Пришельцы через торрент pb.wtf

Размер: 3.44 GB | Добавлен: 5 лет 8 мес. назад | Торрент скачан:284 раза
Скачать  

26-10-2014 13:49 Пришельцы Скачать торрент  

Информация о фильме

Название: Пришельцы

Оригинальное название: Extraterrestrial

Год выхода: 2014

Выпущено: Канада

Продолжительность: 01:40:40

Озвучивание: Любительское (многоголосое) [ViruseProject]

Субтитры: Russian, English

Жанр: ужасы, фантастика

Режиссер: Колин Минихан

В ролях: Бриттани Аллен, Фредди Строма, Мелани Папалиа, Джесси Мосс, Аня Савчич, Шон Роджерсон, Эмили Перкинс, Майк Ковач, Йен Браун, Фред Китинг

Описание: Группа друзей решает провести выходные в хижине в лесу, где сталкивается с пришельцами…



Файл

Качество: WEB-DL 720p

Формат: MKV

Видео кодек: AVC

Аудио кодек: AC3

Видео: 4020 kb/s, 1280х532, 23.976 fps

Аудио: Russian: AC3, 384 kb/s (6 ch) 48.0 KHz

Аудио: English: AC3, 384 kb/s (6 ch) 48.0 KHz

Format : Matroska

Format : Matroska

Format version : Version 4 / Version 2

File size : 3.44 GiB

Duration : 1h 40mn

Overall bit rate : 4 885 Kbps

Encoded date : UTC 2014-10-26 13:23:38

Writing application : mkvmerge v6.1.0 ('Old Devil') built on Mar 4 2013 09:10:42

Writing library : libebml v1.3.0 + libmatroska v1.4.0

Video

ID : 1

Format : AVC

Format/Info : Advanced Video Codec

Format profile : Main@L3.1

Format settings, CABAC : No

Format settings, ReFrames : 2 frames

Codec ID : V_MPEG4/ISO/AVC

Duration : 1h 40mn

Bit rate : 4 020 Kbps

Width : 1 280 pixels

Height : 532 pixels

Display aspect ratio : 2.40:1

Frame rate : 23.976 fps

Color space : YUV

Chroma subsampling : 4:2:0

Bit depth : 8 bits

Scan type : Progressive

Bits/(Pixel*Frame) : 0.246

Stream size : 2.83 GiB (82%)

Language : English

Default : Yes

Forced : No

Color primaries : BT.709-5, BT.1361, IEC 61966-2-4, SMPTE RP177

Transfer characteristics : BT.709-5, BT.1361

Matrix coefficients : BT.709-5, BT.1361, IEC 61966-2-4 709, SMPTE RP177

Audio #1

ID : 2

Format : AC-3

Format/Info : Audio Coding 3

Mode extension : CM (complete main)

Format settings, Endianness : Big

Codec ID : A_AC3

Duration : 1h 40mn

Bit rate mode : Constant

Bit rate : 384 Kbps

Channel(s) : 6 channels

Channel positions : Front: L C R, Side: L R, LFE

Sampling rate : 48.0 KHz

Bit depth : 16 bits

Compression mode : Lossy

Stream size : 277 MiB (8%)

Language : Russian

Default : Yes

Forced : No

Audio #2

ID : 3

Format : AC-3

Format/Info : Audio Coding 3

Mode extension : CM (complete main)

Format settings, Endianness : Big

Codec ID : A_AC3

Duration : 1h 40mn

Bit rate mode : Constant

Bit rate : 384 Kbps

Channel(s) : 6 channels

Channel positions : Front: L C R, Side: L R, LFE

Sampling rate : 48.0 KHz

Bit depth : 16 bits

Compression mode : Lossy

Stream size : 277 MiB (8%)

Language : English

Default : No

Forced : No

Text #1

ID : 4

Format : UTF-8

Codec ID : S_TEXT/UTF8

Codec ID/Info : UTF-8 Plain Text

Language : Russian

Default : No

Forced : No

Text #2

ID : 5

Format : UTF-8

Codec ID : S_TEXT/UTF8

Codec ID/Info : UTF-8 Plain Text

Language : English

Default : No

Forced : No

Menu

00:00:00.000 : en:1

00:09:46.000 : en:2

00:20:27.000 : en:3

00:29:35.000 : en:4

00:40:33.000 : en:5

00:51:28.000 : en:6

00:59:34.000 : en:7

01:09:32.000 : en:8

01:20:00.000 : en:9

01:29:34.000 : en:10

01:37:36.000 : en:11
pb.wtf



Скачать Пришельцы через торрент http://i65.fastpic.ru/big/2014/1022/20/c0a708daac79a11cc524a50b67cf9e20.jpg Скачать фильм Пришельцы через торрент бесплантно в хорошем качестве Описание: Группа друзей решает провести выходные в хижине в лесу, где сталкивается с пришельцами… ... 9.9 10 9
Торрент: Зарегистрирован [2014-10-26 13:49] · скачан: 284 раз
Статус: T временная
Размер: 3.44 GB
Как cкачать? Как скачать Пришельцы через торрент | qTorrent

% Раздел Тема Автор DL S | L
Фильмы 2014 [DVDrip, WEB-DLRip, HDrip] [ 1.46 GB ] Пришельцы / Extraterrestrial [2014 WEB-DLRip] MVO Ворон Скачать
1 | 0

28-11-2019 20:33  

Отключить всю рекламу на сайте

    Дорогой пользователь! Огромная просьба, поблагодарите релизера, оцените раздачу и оставьте свои комментарий, если Вы скачали Пришельцы через торрент бесплатно! Внесите свою лепту в развитие PiratBit!
    Комментировать посты могут только пользователи прошедшие не сложную регистрацию
    Показать сообщения:    

    Пришельцы через торрент
    Скачать бесплатно Пришельцы
    Пришельцы скачать торрент
    Пришельцы смотреть онлайн
    Cкачать фильм Пришельцы бесплатно
    Пришельцы скачать торрент в хорошем качестве
    Пришельцы смотреть онлайн бесплатно в хорошем качестве


    Вы не можете начинать темы
    Вы не можете отвечать на сообщения
    Вы не можете редактировать свои сообщения
    Вы не можете удалять свои сообщения
    Вы не можете голосовать в опросах
    Вы не можете прикреплять файлы к сообщениям
    Вы можете скачивать файлы