Присоединяйтесь к нам в Telegram!, здесь всегда актуальный адрес сайта, оперативная поддержка и многое другое!!

>

5.9

iTunes

7.4

iTunes

9.4

1 сезон

1

7.4

2 сезон

7.2

iTunes

7.3

1 сезон

13

6.1

iTunes

8.3

GOG

30

ULTIMATE

pack

9.9

Лицензия

ВАЖНО

ИГРА 18+

pack

7.3

RePack

MK11

7.7

RePack

jed

7.8

RePack

fifa19

8.5

RePack

RDR2

RePack

NEED FOR SPEED™ PAYBACK

5 сезон

9 сезон

Бесстыжие 9 сезон

Все сериалы

все сериалы на PB.wtf

RePack

FAR CRY 5

Anonymous, доброе утро, мы катастрофически не успеваем собрать деньги на оплату серверов, помогите нам пожалуйста 5,10,15р., для нас важна любая помощь . В качестве благодарности мы отключим Вам всю рекламу на сайте (укажите свой ник в строку Ваше имя)!

×
  
Magnet ссылка

Видео: Виктор Салтыков (Форум, Электро клуб) [1985-2006 г., Pop, SATRip] pb.wtf

Видео: Виктор Салтыков через торрент pb.wtf

Размер: 2.03 GB | Добавлен: 7 лет 1 мес. назад | Торрент скачан:53 раза
Смотреть онлайн Видео: Виктор Салтыков | Скачать    Ребята, помогите собрать деньги на оплату серверов!!!

26-10-2014 18:42 Видео: Виктор Салтыков Скачать торрент  

Видео: Виктор Салтыков (Форум Электро клуб)Год выпуска: 1985-2006
Страна: Россия
Жанр: Pop
Продолжительность: ~ 01:15:00
Перевод: Оригинал

В ролях: Виктор Салтыков

Описание: Видеоподборка групп "Форум и Электроклуб" с участием Виктора Салтыкова
В Мае 1983 года Виктор Салтыков был солистом группы «Мануфактура». На концерты в рок-клуб заходили и известные композиторы, музыканты, уже работавшие на профессиональной сцене. Поэтому, когда год спустя известный питерский композитор Александр Морозов и басист и аранжировщик Александр Назаров (экс-хард-роковый «Форвард») решили собирать при Ленинградской филармонии группу «Форум», то петь к себе пригласили именно сценичного, голосистого и эпатажного Салтыкова. Первый хит «Давайте созвонимся» показывает самая популярная телепрограмма «Утренняя почта» — лихой, отвязный, чем-то похожий на супермодного тогда Стинга и группу «Police» Виктор Салтыков стремительно завоевывает сердца аудитории.

Однако прежней концертной деятельности пока нет — Виктор Салтыков набирает силы для нового рывка в шоу-бизнес. Безусловно, в этом ему вполне помогает и успешное участие в «Музыкальном ринге» в начале февраля 1999 года, где Виктор без труда побеждает свою бывшую жену Ирину. В конце программы трио Салтыковых под записанную накануне фонограмму исполняет совместную и очень сентиментальную песню про семейное счастье. А летом у Виктора выходит долгожданный новый альбом «Шаг за шагом» — очень милый, искренний, с интонациями того же неприкаянного, мечущегося романтика-пэтэушника, каким всем казался Салтыков 10 лет назад. На самом деле Виктор Салтыков помудрел, посерьезнел, но остался таким же бесшабашным и неприкаянным.
1 Виктор Салтыков - Белая ночь (5-ый канал)
2 Виктор Салтыков - Белая ночь (Авторадио)
3 Виктор Салтыков - Белая ночь (Ретро FM)
4 Виктор Салтыков - Кони в яблоках (Баян-mix)
5 Виктор Салтыков - Кони в яблоках
6 Виктор Салтыков - Милых лиц черты
7 Виктор Салтыков - Схожу с ума
8 'НТВ Виктор Салтыков - Белая ночь
9 'НТВ Виктор Салтыков - Беспризорник
10 'НТВ Виктор Салтыков - Кони в яблоках.
11 'НТВ Виктор Салтыков - Не плачь
12 'НТВ Виктор Салтыков - Небо стало серым
13 'НТВ Виктор Салтыков - Прекрасная маркиза
14 'НТВ Виктор Салтыков - Трубодурочка
15 'НТВ Виктор Салтыков - Ты узнаешь её
16 'Ностальгия Виктор Салтыков - Магазин Игрушек
17 'Авторадио - дискотека 80х Виктор Салтыков - Островок
18 'Авторадио - дискотека 80х Виктор Салтыков - Островок
19 Форум - Белая ночь
20 Форум - Улетели листья (Песня 86)
21 Форум - Что сравнится с юностью
22 'Ностальгия ЭлектроКлуб - А я тебя не прошу (Песня 89)
23 'Ностальгия ЭлектроКлуб - А я тебя не прощу (Звездный диск)
24 'Ностальгия ЭлектроКлуб - Последнее свидание
25 'Ностальгия ЭлектроКлуб - Ты замуж за него не выходи
26 'Ностальгия Электроклуб - Кони в яблоках
27 'Ностальгия Электроклуб - Схожу с ума.
28 ЭлектроКлуб - Кони в яблоках (Ретро)
29 ЭлектроКлуб - Ты замуж за него не выходи
30 Электроклуб - Ты замуж за него не выходи ( Песня 88 )
31 Электроклуб - Кони в яблоках.
Качество: SATRip
Формат: AVI
Видео кодек: MPEG2
Аудио кодек: AC3
Видео: MPEG2 Video 720x576 (4:3), 25fps, 9448kbps
Аудио: Dolby AC3, 48000Hz, stereo, 384kbps





General
Complete name : E:\1 форум\Видео\Группа ''Форум''\С Разных телеканалов\Форум - Что сравнится с юностью.vob
Format : MPEG-PS
File size : 79.7 MiB
Duration : 2mn 14s
Overall bit rate mode : Variable
Overall bit rate : 4 977 Kbps
Writing library : Created with Nero

Video
ID : 224 (0xE0)
Format : MPEG Video
Format version : Version 2
Format profile : Main@Main
Format settings, BVOP : Yes
Format settings, Matrix : Default
Format settings, GOP : Variable
Duration : 2mn 14s
Bit rate mode : Variable
Bit rate : 4 494 Kbps
Maximum bit rate : 9 448 Kbps
Width : 720 pixels
Height : 576 pixels
Display aspect ratio : 4:3
Frame rate : 25.000 fps
Standard : PAL
Color space : YUV
Chroma subsampling : 4:2:0
Bit depth : 8 bits
Scan type : Interlaced
Scan order : Top Field First
Compression mode : Lossy
Bits/(Pixel*Frame) : 0.433
Stream size : 72.0 MiB (90%)
Alignment : Created with Nero
Title : Ahead Nero
Writing library : Ahead Nero
Color primaries : BT.601 PAL
Transfer characteristics : BT.470 System B, BT.470 System G
Matrix coefficients : BT.601

Audio
ID : 189 (0xBD)-128 (0x80)
Format : AC-3
Format/Info : Audio Coding 3
Mode extension : CM (complete main)
Format settings, Endianness : Big
Muxing mode : DVD-Video
Duration : 2mn 14s
Bit rate mode : Constant
Bit rate : 384 Kbps
Channel(s) : 2 channels
Channel positions : Front: L R
Sampling rate : 48.0 KHz
Bit depth : 16 bits
Compression mode : Lossy
Delay relative to video : -232ms
Stream size : 6.15 MiB (8%)

Menu

pb.wtf



Скачать Видео: Виктор Салтыков через торрент https://pic1.kartinco.top/images/71/tk8d1.jpg Скачать, смотреть онлайн Видео: Виктор Салтыков бесплантно в хорошем качестве Описание: Видеоподборка групп "Форум и Электроклуб" с участием Виктора СалтыковаВ Мае 1983 года Виктор Салтыков был солистом группы ... 10 10 4
Торрент: Зарегистрирован [2014-10-26 18:42] · скачан: 53 раз
Статус: √ проверено
Размер: 2.03 GB
Как cкачать? Как скачать Видео: Виктор Салтыков через торрент | UTorrent

28-11-2019 20:33  

Отключить всю рекламу на сайте

    Дорогой пользователь! Огромная просьба, поблагодарите релизера, оцените раздачу и оставьте свои комментарий, если Вы скачали Видео: Виктор Салтыков через торрент бесплатно!
    Комментировать посты могут только пользователи прошедшие не сложную регистрацию
    Показать сообщения:    

    Видео: Виктор Салтыков через торрент
    Скачать бесплатно Видео: Виктор Салтыков
    Видео: Виктор Салтыков скачать торрент
    Видео: Виктор Салтыков смотреть онлайн
    Cкачать фильм Видео: Виктор Салтыков бесплатно
    Видео: Виктор Салтыков скачать торрент в хорошем качестве
    Видео: Виктор Салтыков смотреть онлайн бесплатно в хорошем качестве


    Вы не можете начинать темы
    Вы не можете отвечать на сообщения
    Вы не можете редактировать свои сообщения
    Вы не можете удалять свои сообщения
    Вы не можете голосовать в опросах
    Вы не можете прикреплять файлы к сообщениям
    Вы можете скачивать файлы