2 сезон

iTunes

MVO

1

2 сезон

iTunes

iTunes

1 сезон

RePack

30

Новинка

ВАЖНО

ИГРА 18+

pack

RePack

MK11
pack

Легкие деньги

RePack

jed

RePack

fifa19

RePack

RDR2

RePack

NEED FOR SPEED™ PAYBACK

4 сезон

9 сезон

Бесстыжие 9 сезон

Все сериалы

все сериалы на PB.wtf

RePack

FAR CRY 5

Anonymous, доброе утро, мы не успеваем собрать деньги на оплату серверов за декабрь и январь, помогите нам пожалуйста в это трудное время. В качестве благодарности мы отключим Вам всю рекламу на сайте (укажите свой ник в строку Ваше имя)!

×
  
Magnet ссылка

Хоббит: Пустошь Смауга / The Hobbit: The Desolation of Smaug (Питер Джексон / Peter Jackson) [2013, США, Новая Зеландия, фэнтези, приключения, HDRip-AVC,] Дубляж] iTunes / EXTENDED - Расширенная режиссерская версия] От R.G. PiratFilms pb.wtf

Хоббит: Пустошь Смауга через торрент pb.wtf

Размер: 2.82 GB | Добавлен: 6 лет 3 мес. назад | Торрент скачан:1400 раз
Скачать  

26-10-2014 20:11 Хоббит: Пустошь Смауга Скачать торрент  

The Hobbit: The Desolation of Smaug
«За темнотой ... за опустошеним ... находится наибольшая опасность из всех »


Год выпуска: 2013
Страна: США, Новая Зеландия
Жанр: фэнтези, приключения
Продолжительность: 03:06:34
Перевод: Дубляж - [Лицензия / iTunes]
Субтитры: Russian (forced) - вшиты только на речь Орков и Эльфов
Режиссер: Питер Джексон / Peter Jackson
В ролях:

Мартин Фриман (Bilbo), Ричард Армитедж (Thorin), Иэн МакКеллен (Gandalf), Эванджелин Лилли (Tauriel), Орландо Блум (Legolas), Люк Эванс (Bard / Girion), Бенедикт Камбербэтч (Smaug / Necromancer), Ли Пейс (Thranduil), Кен Стотт (Balin), Эйдан Тернер (Kili), Грэм МакТавиш (Dwalin), Джеймс Несбитт (Bofur)
Описание:
Продолжение путешествия хоббита Бильбо Бэггинса, волшебника Гэндальфа и 13 отважных гномов. Их компания обязана завершить своё путешествие к Одинокой горе. Там они должны встретиться с величайшей опасностью из всех - созданием куда более ужасающим, чем все их прошлые противники, которое проверит на прочность не только их мужество, но крепость их дружбы и правильность выбранного пути, - драконом Смаугом.
Мировая премьера: 2 декабря 2013
Релиз от:
    Качество: HDRip-AVC (исх. BDRip 1080р)
    Формат: MKV
    Видео кодек: AVC
    Аудио кодек:AC3
    Видео: AVC, 1024x426 (2.40:1), 1781 kbps, 23,976 fps, 0,170 bpp
    Аудио: русский / AC3 / 5.1 / 48 kHz / 384 kbps / 16 bit ||


Код:

---[Information] [26.10.2014 21:25:31] x264 [info]: frame I:2455  Avg QP:15.68  size: 65521  PSNR Mean Y:47.77 U:53.31 V:53.29 Avg:48.78 Global:48.16
---[Information] [26.10.2014 21:25:31] x264 [info]: frame P:68759 Avg QP:19.02  size: 17742  PSNR Mean Y:44.96 U:53.55 V:53.46 Avg:46.16 Global:45.45
---[Information] [26.10.2014 21:25:31] x264 [info]: frame B:197194 Avg QP:21.19  size:  5632  PSNR Mean Y:44.48 U:52.50 V:52.49 Avg:45.71 Global:44.72
---[Information] [26.10.2014 21:25:31] x264 [info]: consecutive B-frames:  2.4%  7.1%  6.6% 55.5%  8.6%  8.7%  2.1%  7.3%  0.5%  0.4%  0.9%

Код:

General
Unique ID                                : 213830622589910020397076127055058014141 (0xA0DE47A801050C37A7096FEECB1B8FBD)
Complete name                            : D:\рипы От R.G. PiratFilms\The.Hobbit.The.Desolation.of.Smaug.2013.EXTENDED.HDRip-AVC.by.White Smoke.R.G.PiratFilms.mkv
Format                                   : Matroska
Format version                           : Version 4 / Version 2
File size                                : 2.82 GiB
Duration                                 : 3h 6mn
Overall bit rate                         : 2 166 Kbps
Encoded date                             : UTC 2014-10-26 20:16:45
Writing application                      : mkvmerge v6.8.0 ('Theme for Great Cities') 64bit built on Mar  2 2014 21:34:26
Writing library                          : libebml v1.3.0 + libmatroska v1.4.1

Video
ID                                       : 1
Format                                   : AVC
Format/Info                              : Advanced Video Codec
Format profile                           : High@L4.1
Format settings, CABAC                   : Yes
Format settings, ReFrames                : 12 frames
Codec ID                                 : V_MPEG4/ISO/AVC
Duration                                 : 3h 6mn
Bit rate                                 : 1 781 Kbps
Width                                    : 1 024 pixels
Height                                   : 426 pixels
Display aspect ratio                     : 2.40:1
Frame rate                               : 23.976 fps
Color space                              : YUV
Chroma subsampling                       : 4:2:0
Bit depth                                : 8 bits
Scan type                                : Progressive
Bits/(Pixel*Frame)                       : 0.170
Stream size                              : 2.27 GiB (80%)
Writing library                          : x264 core 142 r2431 ac76440
Encoding settings                        : cabac=1 / ref=12 / deblock=1:-3:-3 / analyse=0x3:0x113 / me=umh / subme=9 / psy=1 / psy_rd=1.00:0.00 / mixed_ref=1 / me_range=32 / chroma_me=1 / trellis=1 / 8x8dct=1 / cqm=0 / deadzone=21,11 / fast_pskip=1 / chroma_qp_offset=-2 / threads=12 / lookahead_threads=3 / sliced_threads=0 / nr=0 / decimate=1 / interlaced=0 / bluray_compat=0 / constrained_intra=0 / bframes=10 / b_pyramid=2 / b_adapt=2 / b_bias=10 / direct=1 / weightb=0 / open_gop=0 / weightp=2 / keyint=240 / keyint_min=23 / scenecut=40 / intra_refresh=0 / rc_lookahead=40 / rc=2pass / mbtree=1 / bitrate=1781 / ratetol=1.0 / qcomp=0.65 / qpmin=0 / qpmax=69 / qpstep=4 / cplxblur=20.0 / qblur=0.5 / ip_ratio=1.40 / aq=1:1.00
Language                                 : English
Default                                  : Yes
Forced                                   : No

Audio
ID                                       : 2
Format                                   : AC-3
Format/Info                              : Audio Coding 3
Mode extension                           : CM (complete main)
Codec ID                                 : A_AC3
Duration                                 : 3h 6mn
Bit rate mode                            : Constant
Bit rate                                 : 384 Kbps
Channel(s)                               : 6 channels
Channel positions                        : Front: L C R, Side: L R, LFE
Sampling rate                            : 48.0 KHz
Bit depth                                : 16 bits
Compression mode                         : Lossy
Stream size                              : 512 MiB (18%)
Language                                 : Russian
Default                                  : No
Forced                                   : No

Text
ID                                       : 3
Format                                   : UTF-8
Codec ID                                 : S_TEXT/UTF8
Codec ID/Info                            : UTF-8 Plain Text
Language                                 : Russian
Default                                  : Yes
Forced                                   : No


Скриншоты:

За Обложку к релизу спасибо XLASER
Примечание: EXTENDED - Расширенная режиссерская версия, длиннее театральной на 25 минут! Полный лицензионный дублированный перевод!



pb.wtf



Скачать Хоббит: Пустошь Смауга через торрент https://pic.kartinco.top/images/7/31uyr.jpg Скачать фильм Хоббит: Пустошь Смауга через торрент бесплантно в хорошем качестве Описание: Продолжение путешествия хоббита Бильбо Бэггинса, волшебника Гэндальфа и 13 отважных гномов. Их компания обязана завершить своё ... 9.6 10 34
Info! Золотая раздача, скачанное не засчитывается.
Торрент: Зарегистрирован [2014-10-26 20:16] · скачан: 1 400 раз
Статус: √ проверено
Размер: 2.82 GB
Как cкачать? Как скачать Хоббит: Пустошь Смауга через торрент | UTorrent

% Раздел Тема Автор DL S | L
Фильмы [HD 720p, 1080p] (Хороший звук DUB, MVO) [ 7.67 GB ] Хоббит: Пустошь Смауга / The Hobbit: The Desolation of Smaug [2013 Новая Зеландия BDRip 720p] [] + Ukr + Orignal + Sub от R.G. PiratFilms Messa-fan Скачать
1 | 0

28-11-2019 20:33  

Отключить всю рекламу на сайте

    Дорогой пользователь! Огромная просьба, поблагодарите релизера, оцените раздачу и оставьте свои комментарий, если Вы скачали Хоббит: Пустошь Смауга через торрент бесплатно! Внесите свою лепту в развитие PiratBit!
    Комментировать посты могут только пользователи прошедшие не сложную регистрацию
    Показать сообщения:    

    Хоббит: Пустошь Смауга через торрент
    Скачать бесплатно Хоббит: Пустошь Смауга
    Хоббит: Пустошь Смауга скачать торрент
    Хоббит: Пустошь Смауга смотреть онлайн
    Cкачать фильм Хоббит: Пустошь Смауга бесплатно
    Хоббит: Пустошь Смауга скачать торрент в хорошем качестве
    Хоббит: Пустошь Смауга смотреть онлайн бесплатно в хорошем качестве


    Вы не можете начинать темы
    Вы не можете отвечать на сообщения
    Вы не можете редактировать свои сообщения
    Вы не можете удалять свои сообщения
    Вы не можете голосовать в опросах
    Вы не можете прикреплять файлы к сообщениям
    Вы можете скачивать файлы