Присоединяйтесь к нам в Telegram!, здесь всегда актуальный адрес сайта, оперативная поддержка и многое другое!!

>

5.9

iTunes

7.4

iTunes

9.4

1 сезон

1

7.4

2 сезон

7.2

iTunes

7.3

1 сезон

13

6.1

iTunes

8.3

GOG

30

ULTIMATE

pack

9.9

Лицензия

ВАЖНО

ИГРА 18+

pack

7.3

RePack

MK11

7.7

RePack

jed

7.8

RePack

fifa19

8.5

RePack

RDR2

RePack

NEED FOR SPEED™ PAYBACK

5 сезон

9 сезон

Бесстыжие 9 сезон

Все сериалы

все сериалы на PB.wtf

RePack

FAR CRY 5

Anonymous, доброе утро, мы катастрофически не успеваем собрать деньги на оплату серверов, помогите нам пожалуйста 5,10,15р., для нас важна любая помощь . В качестве благодарности мы отключим Вам всю рекламу на сайте (укажите свой ник в строку Ваше имя)!

×
  
Magnet ссылка

Земляне - Видеоколлекция [1985-2005 г., pop, TVRip] pb.wtf

Земляне - Видеоколлекция через торрент pb.wtf

Размер: 883 MB | Добавлен: 7 лет 1 мес. назад | Торрент скачан:83 раза
Смотреть онлайн Земляне - Видеоколлекция | Скачать    Ребята, помогите собрать деньги на оплату серверов!!!

26-10-2014 20:40 Земляне - Видеоколлекция Скачать торрент  

Земляне - ВидеоколлекцияГод выпуска: 1985-2005
Страна: Россия
Жанр: pop
Продолжительность: ~ 01:20:00
Перевод: Оригинал

В ролях: Игорь Романов -гитара (1977—1985, с 2003 играет в группе «Алиса»)
Сергей Васильев — гитара (1982—2007)
Юрий Бабенко — бас-гитара (1985—1992)
Сергей Скачков — вокал (1983—2006)
Владимир Киселёв — барабаны (1977—1988)
Павел Борисов — бас (после ухода, в 1998—2011 играл в группе «ДДТ»)

Описание: «Земля́не» — советская и российская музыкальная группа, один из самых заметных коллективов периода «ВИА» в советской музыке. Создана Владимиром Киселёвым в 1977 году в Ленинграде
Самые известные песни: «Прости, Земля», «Трава у дома», «Каскадёры», «Красный конь», «Путь домой».
В 1987 году «Земляне» первыми из отечественных групп выступили в СК «Олимпийский» вместе с группой «Юрай Хип». В 1989 году «Земляне» вместе с продюсером Борисом Зосимовым меняет название на «Восточный Экспресс». В 1992 году группу «Земляне» возрождает Сергей Скачков. Из ветеранов коллектива в новом составе работает певец и клавишник Сергей Скачков.
История группы "Земляне" уходит корнями в 1968 год. Правда, в те далекие годы у коллектива было другое название - "Апрель". "Землянами" группа стала к концу 70-х годов и поначалу исполняла англоязычный репертуар.
Широкое признание пришло к музыкантам только после того, как они перешли на родной язык. "Земляне" дебютировали на профессиональной эстраде в 1979 с песней Марка Фрадкина "Красный конь". А началось все с того, что в 1974 году в музыкальном училище при Ленинградской консерватории встретились трое ребят - Игорь Романов, Борис Аксенов и Владимир Киселев - и решили создать собственную группу. В ноябре 1978 года тогда еще самодеятельная группа в составе: Феликс Кудашев (вокал), Борис Аксенов (клавишные), Игорь Романов (лидер-гитара), Владимир Киселев (ударные) дала свой первый концерт.
Большую популярность в 1982 году "Землянам" принесли песня Вячеслава Добрынина и Леонида Дербенева "Прости, земля", а также цикл песен "Каскадеры". Однако, "визитной карточкой" группы в том же 1982 году стала песня в исполнении Сергея Скачкова "Трава у дома", до сих пор удерживающая позицию "почетного хита" народных застолий. Ставшая гимном космонавтов и эмигрантов.
Земляне - Борсалино
Земляне - Каскадёры
Земляне - Клоун
Земляне - Путь домой
Земляне - Трава у дома

01. Каскадеры
02. Красный конь
03. Прости, Земля!
04. Я люблю природу
05. А жизнь идет
06. Маленький кораблик
07. Поверь в мечту
08. Земля в иллюминаторе
09. А жизнь она такая не простая
Качество: TVRip
Формат: AVI
Видео кодек: DivX
Аудио кодек: MP3
Видео: DivX 3, 640x480, 25fps, 2497kbps
Аудио: MP3, 44100Hz, stereo, 96kbps





General
Complete name : E:\1 форум\ЗМ\Земляне\Земляне - Трава у дома .avi
Format : AVI
Format/Info : Audio Video Interleave
File size : 83.6 MiB
Duration : 4mn 29s
Overall bit rate : 2 607 Kbps
Writing application : Lavf50.6.0
Writing library : VirtualDub build 30009/release

Video
ID : 0
Format : MPEG-4 Visual
Codec ID : DIV3
Codec ID/Hint : DivX 3 Low
Duration : 4mn 29s
Bit rate : 2 498 Kbps
Width : 640 pixels
Height : 480 pixels
Display aspect ratio : 4:3
Frame rate : 25.000 fps
Color space : YUV
Chroma subsampling : 4:2:0
Bit depth : 8 bits
Compression mode : Lossy
Bits/(Pixel*Frame) : 0.325
Stream size : 80.1 MiB (96%)

Audio
ID : 1
Format : MPEG Audio
Format version : Version 1
Format profile : Layer 3
Mode : Joint stereo
Mode extension : MS Stereo
Codec ID : 55
Codec ID/Hint : MP3
Duration : 4mn 29s
Bit rate mode : Constant
Bit rate : 96.0 Kbps
Channel(s) : 2 channels
Sampling rate : 44.1 KHz
Compression mode : Lossy
Stream size : 3.08 MiB (4%)
Alignment : Aligned on interleaves
Interleave, duration : 26 ms (0.65 video frame)
Interleave, preload duration : 522 ms

pb.wtf



Скачать Земляне - Видеоколлекция через торрент https://pic1.kartinco.top/images/71/i1d7p.jpg Скачать, смотреть онлайн Земляне - Видеоколлекция [1985-2005 г., pop, TVRip] бесплантно в хорошем качестве Описание: «Земля́не» — советская и российская музыкальная группа, один из самых заметных коллективов периода «ВИА» в советской музыке. ... 10 10 10
Торрент: Зарегистрирован [2014-10-26 20:40] · скачан: 83 раз
Статус: √ проверено
Размер: 883 MB
Как cкачать? Как скачать Земляне - Видеоколлекция через торрент | UTorrent

28-11-2019 20:33  

Отключить всю рекламу на сайте

    Дорогой пользователь! Огромная просьба, поблагодарите релизера, оцените раздачу и оставьте свои комментарий, если Вы скачали Земляне - Видеоколлекция через торрент бесплатно!
    Комментировать посты могут только пользователи прошедшие не сложную регистрацию
    Показать сообщения:    

    Земляне - Видеоколлекция через торрент
    Скачать бесплатно Земляне - Видеоколлекция
    Земляне - Видеоколлекция скачать торрент
    Земляне - Видеоколлекция смотреть онлайн
    Cкачать фильм Земляне - Видеоколлекция бесплатно
    Земляне - Видеоколлекция скачать торрент в хорошем качестве
    Земляне - Видеоколлекция смотреть онлайн бесплатно в хорошем качестве


    Вы не можете начинать темы
    Вы не можете отвечать на сообщения
    Вы не можете редактировать свои сообщения
    Вы не можете удалять свои сообщения
    Вы не можете голосовать в опросах
    Вы не можете прикреплять файлы к сообщениям
    Вы можете скачивать файлы