1 сезон

1 сезон

iTunes

1

КиноПоиск HD

Кинопоиск HD

iTunes

13

1 сезон

RePack

30

Новинка

ВАЖНО

ИГРА 18+

pack

RePack

MK11
pack

Легкие деньги

RePack

jed

RePack

fifa19

RePack

RDR2

RePack

NEED FOR SPEED™ PAYBACK

4 сезон

9 сезон

Бесстыжие 9 сезон

Все сериалы

все сериалы на PB.wtf

RePack

FAR CRY 5
  
Magnet ссылка

Лиззи Магуайр / The Lizzie McGuire Movie (Джим Фолл) [2003 г., мелодрама, комедия, приключения, семейный, музыка, WEB-DLRip, Профессиональный многоголосый, Лицензия] pb.wtf

Лиззи Магуайр через торрент pb.wtf

Размер: 1.45 GB | Добавлен: 6 лет 5 мес. назад | Торрент скачан:19 раз
Скачать  

27-10-2014 06:22 Лиззи Магуайр Скачать торрент  

Лиззи Магуайр / The Lizzie McGuire Movie
Год выпуска: 2003
Страна: США
Жанр: мелодрама, комедия, приключения, семейный, музыка
Продолжительность: 01:33:51
Перевод: Профессиональный многоголосый, Лицензия [DVD-5]
Тип релиза: Лицензия
Субтитры: отсутствуют

Режиссер: Джим Фолл
Продюссер: Стэн Рогов, Сьюзэн Эстель Джэнсен, Уте Леонхардт
Сценарий: Сьюзэн Эстель Джэнсен, Эд Дектер, Джон Дж. Штраусс

Бюджет: $17 000 000
Премьера в мире: 26 апреля 2003, ...




В ролях: Хилари Дафф, Адам Лэмберг, Роберт Кэррэдайн, Хэлли Тодд, Джйек Томас, Алекс Борстейн

Описание: Тринадцатилетняя школьница Лиззи Магуайер и ее приятели Гордо, Кейт и Эсан собираются оттянуться по полной программе во время их поездки с классом в Италию.
Но там случается весьма неожиданное происшествие: девочку ошибочно принимают за итальянскую поп-звезду Изабеллу, да к тому же девушка влюбляется в бывшего дружка Изабеллы Паоло. Когда родители Лизи обо всем узнают, они вместе с ее братом Мэттом срочно вылетают в Италию.
Но Лиззи уже не та закомплексованная девочка-подросток, кем была раньше, она до такой степени вжилась в роль певицы, что и на самом деле стала самой настоящей звездой.

Качество: WEB-DLRip
Формат: AVI
Видео кодек: XviD
Аудио кодек: AC3
Видео: 48 kHz, AC3, 3/2 (L,C,R,l,r) + LFE ch, 384.00 kbps
Релиз от: Deadmauvlad
скриншот   скриншот   скриншот   скриншот   скриншот  

Код:

The.Lizzie.McGuire.Movie.2003.P.WEB-DLRip.Deadmauvlad.avi
Формат                                   : AVI
Формат/Информация                        : Audio Video Interleave
Размер файла                             : 1,45 Гбайт
Продолжительность                        : 1 ч. 33 м.
Общий поток                              : 2204 Кбит/сек
Название фильма                          : The.Lizzie.McGuire.Movie.2003.P.WEB-DLRip.Deadmauvlad
Режиссёр                                 : Deadmauvlad
Жанр                                     : комедия , семейный
Программа кодирования                    : VirtualDubMod 1.5.10.2 (build 2540/release)
Формат оригинала/Имя                     : Фильм
Правообладатель                          : Goldenshara

Видео
Идентификатор                            : 0
Формат                                   : MPEG-4 Visual
Профиль формата                          : Advanced Simple@L5
Параметр BVOP формата                    : 2
Параметр QPel формата                    : Да
Параметр GMC формата                     : 3 точки перехода
Параметр матрицы формата                 : Выборочная
Идентификатор кодека                     : XVID
Идентификатор кодека/Подсказка           : XviD
Продолжительность                        : 1 ч. 33 м.
Битрейт                                  : 1811 Кбит/сек
Ширина                                   : 720 пикселей
Высота                                   : 304 пикселя
Соотношение сторон                       : 2,35:1
Частота кадров                           : 23,976 кадра/сек
Цветовое пространство                    : YUV
Субдискретизация насыщенности            : 4:2:0
Битовая глубина                          : 8 бит
Тип развёртки                            : Чересстрочная
Порядок развёртки                        : Нижнее поле первое
Метод сжатия                             : С потерями
Бит/(Пиксели*Кадры)                      : 0.345
Размер потока                            : 1,19 Гбайт (82%)
Библиотека кодирования                   : XviD 74

Аудио
Идентификатор                            : 1
Формат                                   : AC-3
Формат/Информация                        : Audio Coding 3
Расширение режима                        : CM (complete main)
Параметр Endianness формата              : Big
Идентификатор кодека                     : 2000
Продолжительность                        : 1 ч. 33 м.
Вид битрейта                             : Постоянный
Битрейт                                  : 384 Кбит/сек
Каналы                                   : 6 каналов
Расположение каналов                     : Front: L C R, Side: L R, LFE
Частота                                  : 48,0 КГц
Битовая глубина                          : 16 бит
Метод сжатия                             : С потерями
Размер потока                            : 258 Мбайт (17%)
Выравнивание                             : Разделение по промежуткам
Продолжительность промежутка             : 42  мс. (1,00 видеокадр)
Время предзагрузки промежутка            : 500  мс.


pb.wtf



Скачать Лиззи Магуайр через торрент https://pic.kartinco.top/images/7/wesb4.jpg Скачать фильм Лиззи Магуайр через торрент бесплантно в хорошем качестве Описание: Тринадцатилетняя школьница Лиззи Магуайер и ее приятели Гордо, Кейт и Эсан собираются оттянуться по полной программе во время их ... 9.3 10 3
Торрент: Зарегистрирован [2014-10-27 06:22] · скачан: 19 раз
Статус: √ проверено
Размер: 1.45 GB
Как cкачать? Как скачать Лиззи Магуайр через торрент | UTorrent

28-11-2019 20:33  

Отключить всю рекламу на сайте

    Дорогой пользователь! Огромная просьба, поблагодарите релизера, оцените раздачу и оставьте свои комментарий, если Вы скачали Лиззи Магуайр через торрент бесплатно! Внесите свою лепту в развитие PiratBit!
    Комментировать посты могут только пользователи прошедшие не сложную регистрацию
    Показать сообщения:    

    Лиззи Магуайр через торрент
    Скачать бесплатно Лиззи Магуайр
    Лиззи Магуайр скачать торрент
    Лиззи Магуайр смотреть онлайн
    Cкачать фильм Лиззи Магуайр бесплатно
    Лиззи Магуайр скачать торрент в хорошем качестве
    Лиззи Магуайр смотреть онлайн бесплатно в хорошем качестве


    Вы не можете начинать темы
    Вы не можете отвечать на сообщения
    Вы не можете редактировать свои сообщения
    Вы не можете удалять свои сообщения
    Вы не можете голосовать в опросах
    Вы не можете прикреплять файлы к сообщениям
    Вы можете скачивать файлы