Ссылка на приватное зеркало нашего сайта всего за 1$. Внимание количество ограничено!!!

2 сезон

iTunes

1 сезон

1

2 сезон

2 сезон

iTunes

1 сезон

RePack

30

Новинка

ВАЖНО

ИГРА 18+

pack

RePack

MK11
pack

Забери бонус

RePack

jed

!!Акция!!

Alien_Rage

RePack

fifa19

RePack

Assassins Creed: Odyssey

RePack

NEED FOR SPEED™ PAYBACK

4 сезон

9 сезон

Бесстыжие 9 сезон

Все сериалы

все сериалы на PB.wtf

RePack

FAR CRY 5
  

Мэри Ком / Mary Kom (Омунг Кумар / Omung Kumar) [2014, Индия, драма, биография, спорт, BDRip 1080p,Любительский (одноголосый) [R.A.I.M.] pb.wtf

Мэри Ком через торрент pb.wtf

Размер: 7.9 GB | Добавлен: 6 лет 1 мес. назад | Торрент скачан:22 раза
Скачать  

27-10-2014 10:17 Мэри Ком Скачать торрент  

Мэри Ком / Mary Kom

Год выпуска: 2014
Страна: Индия
Жанр: драма, биография, спорт
Продолжительность: 02:01:07
Перевод: Любительский (одноголосый) [R.A.I.M.]
Субтитры: Russian, English
Режиссер: Омунг Кумар / Omung Kumar
В ролях: Приянка Чопра (Mary Kom), Захари Соффин (German Boxing Coach), Darshan Kumaar (Onler Kom), Даршан Кумар (Onler), Lin Laishram (Bem), Шишир Шарма (слухи), Сунил Тхапа (Mary Kom's Coach)
Описание:
Мэри, дочери бедного крестьянина из отдалённой деревни, подарили на день рождения боксёрские перчатки. Первая несанкционированная схватка Мэри с достойным противником даёт ей шанс выиграть немного денег для семьи. После встречи с тренером по боксу девушка стала профессионально заниматься боксом. Мать поддерживает желание Мэри стать профессиональной боксёршей, а отец очень недоволен этим решением.
Рейтинг
kinopoisk.ru: 8.800 (16)
imdb.com: 7.00 (2494)
Качество: BDRip 1080p
Формат: MKV
Видео кодек: AVC
Аудио кодек:AC3
Видео: AVC, 1920x816 (2.35:1), 8500 kbps, 24 fps, 0,226 bpp
Аудио №1: русский / AC3 / 5.1 / 48 kHz / 384 kbps / 16 bit ||
Аудио №2: Hindi / AC3 / 5.1 / 48 kHz / 448 kbps / 16 bit

Общее
Уникальный идентификатор : 193281733860530786659178373081072491102 (0x9168B5389311206A88C7B0B2A67D5A5E)
Полное имя : J:\Фильмы\Фантастика\Temp\Mary Kom 2014 Hindi Bluray 1080p x264 TrueHD 7.1...Hon3y\Mary Kom 2014 Hindi Bluray 1080p x264.Hon3y.RAIM.mkv
Формат : Matroska
Версия формата : Version 4 / Version 2
Размер файла : 7,90 Гбайт
Продолжительность : 2 ч. 1 м.
Общий поток : 9335 Кбит/сек
Название фильма : ~V~
Дата кодирования : UTC 2014-10-27 05:37:02
Программа кодирования : mkvmerge v7.2.0 ('On Every Street') 32bit built on Sep 13 2014 15:42:11
Библиотека кодирования : libebml v1.3.0 + libmatroska v1.4.1
_STATISTICS_WRITING_APP : mkvmerge v7.2.0 ('On Every Street') 32bit built on Sep 13 2014 15:42:11
_STATISTICS_WRITING_DATE_UTC : 2014-10-27 05:37:02
_STATISTICS_TAGS : BPS DURATION NUMBER_OF_FRAMES NUMBER_OF_BYTES
DURATION : 01:58:04.716000000
NUMBER_OF_FRAMES : 1746
NUMBER_OF_BYTES : 55733

Видео
Идентификатор : 1
Формат : AVC
Формат/Информация : Advanced Video Codec
Профиль формата : High@L4.1
Параметр CABAC формата : Да
Параметр ReFrames формата : 5 кадров
Идентификатор кодека : V_MPEG4/ISO/AVC
Продолжительность : 2 ч. 1 м.
Битрейт : 8500 Кбит/сек
Ширина : 1920 пикселей
Высота : 816 пикселей
Соотношение сторон : 2,35:1
Режим частоты кадров : Постоянный
Частота кадров : 24,000 кадра/сек
Цветовое пространство : YUV
Субдискретизация насыщенности : 4:2:0
Битовая глубина : 8 бит
Тип развёртки : Прогрессивная
Бит/(Пиксели*Кадры) : 0.226
Размер потока : 7,04 Гбайт (89%)
Библиотека кодирования : x264 core 142 r2453 ea0ca51
Настройки программы : cabac=1 / ref=5 / deblock=1:0:0 / analyse=0x3:0x133 / me=umh / subme=9 / psy=1 / psy_rd=1.00:0.00 / mixed_ref=1 / me_range=16 / chroma_me=1 / trellis=2 / 8x8dct=1 / cqm=0 / deadzone=21,11 / fast_pskip=0 / chroma_qp_offset=-2 / threads=6 / lookahead_threads=1 / sliced_threads=0 / nr=1000 / decimate=1 / interlaced=0 / bluray_compat=0 / constrained_intra=0 / bframes=3 / b_pyramid=2 / b_adapt=2 / b_bias=0 / direct=3 / weightb=1 / open_gop=0 / weightp=2 / keyint=250 / keyint_min=24 / scenecut=40 / intra_refresh=0 / rc_lookahead=60 / rc=2pass / mbtree=1 / bitrate=8500 / ratetol=1.0 / qcomp=0.60 / qpmin=0 / qpmax=69 / qpstep=4 / cplxblur=20.0 / qblur=0.5 / ip_ratio=1.40 / aq=1:1.00
Default : Да
Forced : Нет

Аудио #1
Идентификатор : 2
Формат : AC-3
Формат/Информация : Audio Coding 3
Расширение режима : CM (complete main)
Параметр Endianness формата : Big
Идентификатор кодека : A_AC3
Продолжительность : 2 ч. 1 м.
Вид битрейта : Постоянный
Битрейт : 384 Кбит/сек
Каналы : 6 каналов
Расположение каналов : Front: L C R, Side: L R, LFE
Частота : 48,0 КГц
Битовая глубина : 16 бит
Метод сжатия : С потерями
Размер потока : 333 Мбайт (4%)
Заголовок : RAIM
Язык : Russian
Default : Да
Forced : Нет

Аудио #2
Идентификатор : 3
Формат : AC-3
Формат/Информация : Audio Coding 3
Расширение режима : CM (complete main)
Параметр Endianness формата : Big
Идентификатор кодека : A_AC3
Продолжительность : 2 ч. 1 м.
Вид битрейта : Постоянный
Битрейт : 448 Кбит/сек
Каналы : 6 каналов
Расположение каналов : Front: L C R, Side: L R, LFE
Частота : 48,0 КГц
Битовая глубина : 16 бит
Метод сжатия : С потерями
Размер потока : 388 Мбайт (5%)
Язык : Hindi
Default : Нет
Forced : Нет

Текст #1
Идентификатор : 4
Формат : ASS
Идентификатор кодека : S_TEXT/ASS
Идентификатор кодека/Информация : Advanced Sub Station Alpha
Метод сжатия : Без потерь
Заголовок : тексты песен
Язык : Russian
Default : Нет
Forced : Нет

Текст #2
Идентификатор : 5
Формат : UTF-8
Идентификатор кодека : S_TEXT/UTF8
Идентификатор кодека/Информация : UTF-8 Plain Text
Язык : English
Default : Нет
Forced : Нет
pb.wtf



Скачать Мэри Ком через торрент http://i66.fastpic.ru/big/2014/1027/48/e34f7e9b96e9f1cc6ffe3da36295ac48.jpg Скачать фильм Мэри Ком через торрент бесплантно в хорошем качестве Описание: Мэри, дочери бедного крестьянина из отдалённой деревни, подарили на день рождения боксёрские перчатки. Первая несанкционированная ... 8 10 4
Торрент: Зарегистрирован [2014-10-27 10:17] · скачан: 22 раз
Статус: T временная
Размер: 7.9 GB
Как cкачать? Как скачать Мэри Ком через торрент | qTorrent

% Раздел Тема Автор DL S | L
Индийское кино [ 1.46 GB ] Мэри Ком / Mary Kom [2014 Индия биография HDRipЛюбительский [R.A.I.M.] Ворон Скачать
1 | 0

28-11-2019 20:33  

Отключить всю рекламу на сайте

    Дорогой пользователь! Огромная просьба, поблагодарите релизера, оцените раздачу и оставьте свои комментарий, если Вы скачали Мэри Ком через торрент бесплатно! Внесите свою лепту в развитие PiratBit!
    Комментировать посты могут только пользователи прошедшие не сложную регистрацию
    Показать сообщения:    

    Мэри Ком через торрент
    Скачать бесплатно Мэри Ком
    Мэри Ком скачать торрент
    Мэри Ком смотреть онлайн
    Cкачать фильм Мэри Ком бесплатно
    Мэри Ком скачать торрент в хорошем качестве
    Мэри Ком смотреть онлайн бесплатно в хорошем качестве


    Вы не можете начинать темы
    Вы не можете отвечать на сообщения
    Вы не можете редактировать свои сообщения
    Вы не можете удалять свои сообщения
    Вы не можете голосовать в опросах
    Вы не можете прикреплять файлы к сообщениям
    Вы можете скачивать файлы