2 сезон

iTunes

1 сезон

1

iTunes

iTunes

iTunes

1 сезон

RePack

30

ИГРА 18+

pack

ВАЖНО

!!Акция!!

Alien_RageХит недели

RePack

MK11
pack

Забери бонус

RePack

jed

!!Акция!!

Alien_Rage

RePack

fifa19

RePack

Assassins Creed: Odyssey

RePack

NEED FOR SPEED™ PAYBACK

4 сезон

9 сезон

Бесстыжие 9 сезон

Все сериалы

все сериалы на PB.wtf

RePack

FAR CRY 5
  

Поцелуй навылет / Kiss Kiss Bang Bang (Шейн Блэк / Shane Black) [2005, США, боевик, комедия, криминал, BDRip 1080p,Дубляж - [Лицензия], Авторский (одноголосый) pb.wtf

Поцелуй навылет через торрент pb.wtf

Размер: 7.76 GB | Добавлен: 6 лет назад | Торрент скачан:97 раз
Скачать  

27-10-2014 12:32 Поцелуй навылет Скачать торрент  

Поцелуй навылет / Kiss Kiss Bang Bang
«Секс. Преступление. Тайна»

Год выпуска: 2005
Жанр: боевик, комедия, криминал, детектив
Выпущено: США
Продолжительность: 01:42:42
Перевод: Дубляж - [Лицензия], Авторский (одноголосый)

Режиссер: Шейн Блэк / Shane Black
В ролях: Роберт Дауни мл. (Harry Lockhart), Вэл Килмер (Gay Perry), Мишель Монахэн (Harmony Faith Lane), Корбин Бернсен (Harlan Dexter), Дэш Майок (Mr. Frying Pan), Ларри Миллер (Dabney Shaw), Рокмонд Данбар (Mr. Fire), Шаннин Соссамон (Pink Hair Girl), Анджела Линдвэлл (Flicka), Индио Фалконер Дауни (Harry Lockhart - Age 9), Эриель Винтер (Harmony Faith Lane - Age 7), Дуан Карнахан (Chainsaw Kid)
Сюжет фильма:
Зайдя на Рождество в нью-йоркский магазин игрушек, симпатичный вор Гарри Локхарт случайно нажимает на сигнализацию и, спасаясь бегством от полиции, попадает на кинопробы в детективный фильм. Продюсеру нравится его напористость, и он приглашает Гарри в Голливуд. Готовит Локхарта к кинопробе Перри ван Шрайк, настоящий сыщик, оказавшийся к тому же еще и гомосексуалистом.
На роль главной героини претендует актриса Хармони Фэйт, с которой Гарри связывает общая любовь к детективным историям Джонни Госсамера. Однажды ночью Перри берет Гарри с собой на задание, и в итоге им приходится заняться расследованием убийства некой женщины. Затем, как и в романе Госсамера, возникает еще одна детективная линия: сестра Хармони совершает самоубийство, которое, как выясняется, имеет прямое отношение к обнаруженному Перри и Гарри трупу...


Качество: BDRip 1080p (исходник Blu-ray)
Формат: AVC(библиотека кодирования x.264)
Контейнер (Расширение): MKV
Видео кодек: AVC
Аудио кодек:AC3
Видео: AVC, 1916x794 (2.40:1), 8513 Кбит/сек, 23,976 кадр/сек, 0,233 Бит/[Пиксели*Кадры]
Аудио №1: русский / AC3 / 5.1 / 48 kHz / 384 kbps / 16 bit |Дублированный|
Аудио №2: русский / AC3 / 5.1 / 48 kHz / 640 kbps / 16 bit |Авторский - Гаврилов|
Аудио №3: русский / AC3 / 5.1 / 48 kHz / 640 kbps / 16 bit |Авторский - Королёв|
Аудио №4: английский / AC3 / 5.1 / 48 kHz / 640 kbps / 16 bit
Субтитры: русские (Russian),
английские (English),
Навигация по главам(Чаптеры): есть
За проделанную работу над переводами Гаврилова и Королёва большое спасибо
morov

Автор рипа: Сообщество:
Format : Matroska
Format version : Version 2
File size : 7.30 GiB
Duration : 1h 42mn
Overall bit rate : 10.2 Mbps
Movie name : Poceluj navylet.(2005).BDRip.1080p.[denis100]
Encoded date : UTC 2014-08-30 08:45:44
Writing application : mkvmerge v5.8.0 ('No Sleep / Pillow') built on Sep 2 2012 15:37:04
Writing library : libebml v1.2.3 + libmatroska v1.3.0

Video
ID : 1
Format : AVC
Format/Info : Advanced Video Codec
Format profile : High@L4.1
Format settings, CABAC : Yes
Format settings, ReFrames : 5 frames
Codec ID : V_MPEG4/ISO/AVC
Duration : 1h 42mn
Bit rate : 8 513 Kbps
Width : 1 916 pixels
Height : 794 pixels
Display aspect ratio : 2.40:1
Frame rate mode : Constant
Frame rate : 23.976 fps
Color space : YUV
Chroma subsampling : 4:2:0
Bit depth : 8 bits
Scan type : Progressive
Bits/(Pixel*Frame) : 0.233
Stream size : 5.96 GiB (82%)
Title : Poceluj navylet.(2005).BDRip.1080p.[denis100]
Writing library : x264 core 142 r2453 ea0ca51
Encoding settings : cabac=1 / ref=5 / deblock=1:-3:-3 / analyse=0x3:0x133 / me=umh / subme=11 / psy=1 / psy_rd=1.00:0.10 / mixed_ref=1 / me_range=32 / chroma_me=1 / trellis=2 / 8x8dct=1 / cqm=0 / deadzone=21,11 / fast_pskip=0 / chroma_qp_offset=-3 / threads=6 / lookahead_threads=1 / sliced_threads=0 / nr=0 / decimate=1 / interlaced=0 / bluray_compat=0 / constrained_intra=0 / bframes=6 / b_pyramid=2 / b_adapt=2 / b_bias=0 / direct=3 / weightb=1 / open_gop=0 / weightp=2 / keyint=240 / keyint_min=23 / scenecut=40 / intra_refresh=0 / rc=2pass / mbtree=0 / bitrate=8513 / ratetol=1.0 / qcomp=0.60 / qpmin=0 / qpmax=69 / qpstep=4 / cplxblur=20.0 / qblur=0.5 / ip_ratio=1.40 / pb_ratio=1.30 / aq=1:1.00
Language : English
Default : Yes
Forced : No

Audio #1
ID : 2
Format : AC-3
Format/Info : Audio Coding 3
Mode extension : CM (complete main)
Format settings, Endianness : Big
Codec ID : A_AC3
Duration : 1h 42mn
Bit rate mode : Constant
Bit rate : 384 Kbps
Channel(s) : 6 channels
Channel positions : Front: L C R, Side: L R, LFE
Sampling rate : 48.0 KHz
Bit depth : 16 bits
Compression mode : Lossy
Stream size : 282 MiB (4%)
Title : Дублированный
Language : Russian
Default : Yes
Forced : No

Audio #2
ID : 3
Format : AC-3
Format/Info : Audio Coding 3
Mode extension : CM (complete main)
Format settings, Endianness : Big
Codec ID : A_AC3
Duration : 1h 42mn
Bit rate mode : Constant
Bit rate : 640 Kbps
Channel(s) : 6 channels
Channel positions : Front: L C R, Side: L R, LFE
Sampling rate : 48.0 KHz
Bit depth : 16 bits
Compression mode : Lossy
Stream size : 470 MiB (6%)
Title : Авторский, Гаврилов
Language : Russian
Default : No
Forced : No

Audio #3
ID : 4
Format : AC-3
Format/Info : Audio Coding 3
Mode extension : CM (complete main)
Format settings, Endianness : Big
Codec ID : A_AC3
Duration : 1h 42mn
Bit rate mode : Constant
Bit rate : 640 Kbps
Channel(s) : 6 channels
Channel positions : Front: L C R, Side: L R, LFE
Sampling rate : 48.0 KHz
Bit depth : 16 bits
Compression mode : Lossy
Stream size : 470 MiB (6%)
Title : Авторский, Королёв
Language : Russian
Default : No
Forced : No

Text #1
ID : 5
Format : UTF-8
Codec ID : S_TEXT/UTF8
Codec ID/Info : UTF-8 Plain Text
Title : Russian
Language : Russian
Default : No
Forced : No

Text #2
ID : 6
Format : UTF-8
Codec ID : S_TEXT/UTF8
Codec ID/Info : UTF-8 Plain Text
Title : English
Language : English
Default : No
Forced : No

Menu
00:00:00.000 : :Chapter 01
00:03:24.621 : :Chapter 02
00:08:24.754 : :Chapter 03
00:12:46.640 : :Chapter 04
00:17:19.288 : :Chapter 05
00:23:39.334 : :Chapter 06
00:25:27.901 : :Chapter 07
00:30:57.772 : :Chapter 08
00:33:35.054 : :Chapter 09
00:36:29.103 : :Chapter 10
00:38:38.899 : :Chapter 11
00:44:22.660 : :Chapter 12
00:46:42.341 : :Chapter 13
00:49:06.777 : :Chapter 14
00:52:15.590 : :Chapter 15
00:56:11.076 : :Chapter 16
00:59:23.893 : :Chapter 17
01:02:11.936 : :Chapter 18
01:05:45.566 : :Chapter 19
01:07:15.531 : :Chapter 20
01:11:07.888 : :Chapter 21
01:15:56.552 : :Chapter 22
01:19:11.830 : :Chapter 23
01:22:51.341 : :Chapter 24
01:26:11.040 : :Chapter 25
01:28:49.991 : :Chapter 26
01:32:10.691 : :Chapter 27
01:35:23.968 : :Chapter 28
01:38:30.321 : :Chapter 29
x264 [info]: frame I:1271 Avg QP:14.15 size:172956
x264 [info]: frame P:32784 Avg QP:16.29 size: 79594
x264 [info]: frame B:113690 Avg QP:18.25 size: 32751
pb.wtf



Скачать Поцелуй навылет через торрент http://i63.fastpic.ru/big/2014/1027/94/a3ff8f819ada0eba1ddb44deda39b194.png Скачать фильм Поцелуй навылет через торрент бесплантно в хорошем качестве В ролях: Роберт Дауни мл. (Harry Lockhart), Вэл Килмер (Gay Perry), Мишель Монахэн (Harmony Faith Lane), Корбин Бернсен (Harlan Dexter), ... 10 10 3
Торрент: Зарегистрирован [2014-10-27 12:32] · скачан: 97 раз
Статус: √ проверено
Размер: 7.76 GB
Как cкачать? Как скачать Поцелуй навылет через торрент | qTorrent

% Раздел Тема Автор DL S | L
Фильмы (WEB-DL 720p, 1080p) [ 9.33 GB ] Поцелуй навылет / Kiss Kiss Bang Bang [2005 WEB-DL 1080p] [Open Matte] DUB+DVO+2xAVO bober100 Скачать
1 | 0
Фильмы (Blu-ray, BD-Remux, HDDVD) [ 14.38 GB ] Поцелуй навылет / Kiss Kiss Bang Bang [2005 BD Remux 1080p] DUB+MVO+2xAVO bober100 Скачать
1 | 0
Фильмы [HD 720p, 1080p] (Хороший звук DUB, MVO) [ 5.76 GB ] Поцелуй навылет / Kiss Kiss Bang Bang [2005 BDRip 1080p DUB] VintMosina Скачать
1 | 0
Фильмы 2001-2005 [ 1.46 GB ] Поцелуй навылет / Kiss Kiss Bang Bang [2005 BDRip] DUB |лицензия| Mr. Freeman Скачать
2 | 0
Фильмы 2001-2005 [ 768 MB ] Поцелуй навылет / Kiss Kiss Bang Bang [2005 HDRip-AVC] Dean24 Скачать
1 | 0
Фильмы 2001-2005 [ 1.45 GB ] Поцелуй навылет / Kiss Kiss Bang Bang [2005 HDRip-AVC] DUB stalonе Скачать
1 | 0
Фильмы 2001-2005 [ 2.19 GB ] Поцелуй Навылет / Kiss Kiss Bang Bang [2005 BDRip] Trust Скачать
1 | 0

28-11-2019 20:33  

Отключить всю рекламу на сайте

    Дорогой пользователь! Огромная просьба, поблагодарите релизера, оцените раздачу и оставьте свои комментарий, если Вы скачали Поцелуй навылет через торрент бесплатно! Внесите свою лепту в развитие PiratBit!
    Комментировать посты могут только пользователи прошедшие не сложную регистрацию
    Показать сообщения:    

    Поцелуй навылет через торрент
    Скачать бесплатно Поцелуй навылет
    Поцелуй навылет скачать торрент
    Поцелуй навылет смотреть онлайн
    Cкачать фильм Поцелуй навылет бесплатно
    Поцелуй навылет скачать торрент в хорошем качестве
    Поцелуй навылет смотреть онлайн бесплатно в хорошем качестве


    Вы не можете начинать темы
    Вы не можете отвечать на сообщения
    Вы не можете редактировать свои сообщения
    Вы не можете удалять свои сообщения
    Вы не можете голосовать в опросах
    Вы не можете прикреплять файлы к сообщениям
    Вы можете скачивать файлы