Всегда рабочее зеркало без VPN и Proxy просто перед .vidak.icu напиши любое слово или цифру, Пример http://foeq.vidak.icu

MVO

2 сезон

2 сезон

1

1 сезон

iTunes

2 сезон

13

1 сезон

Распродажа

pack

Рекомендуем

Пиратка

30

ВАЖНО

RePack

MK11

RePack

jed

RePack

fifa19

RePack

RDR2

RePack

NEED FOR SPEED™ PAYBACK

Кинопоиск HD

6 сезон

 Острые козырьки 6 сезон

Все сериалы

все сериалы на PB.wtf

RePack

FAR CRY 5

Anonymous, нам критически не хватает 5601 руб. на оплату серверов и переферии за Апрель, помоги нам пожалуйста, вся надежда только на тебя. В благодарность мы отключим тебе всю рекламу на сайте!

×
  
Magnet ссылка

Записи концертных туров Depeche Mode / Depeche Mode, Dave Gahan, Martin L. Gore - Tours [1984-2010 г., Synthpop, new wave, alternative rock, electronic, DVDRip,, TVRip, CamRip] pb.wtf

Записи концертных туров Depeche Mode через торрент pb.wtf

Размер: 34.97 GB | Добавлен: 7 лет 6 мес. назад | Торрент скачан:18 раз
Смотреть онлайн Записи концертных туров Depeche Mode | Скачать    Ребята, помогите собрать деньги на оплату серверов!!!

27-10-2014 13:52 Записи концертных туров Depeche Mode Скачать торрент  

Записи концертных туров Depeche Mode Dave Gahan Martin L. Gore / Depeche Mode Dave Gahan Martin L. Gore - Tours (Live Video 1984-2010)Год выпуска: 1984-2010
Страна: UK
Жанр: Synthpop, new wave, alternative rock, electronic
Продолжительность: ~ 32:00:00
Перевод: Оригинал

В ролях: Depeche Mode: Depeche Mode были образованы в 1980 как квартет, в его состав входили Дэйв Гаан (основной вокалист), Мартин Гор (клавишные, гитара, вокал), Энди Флетчер (клавишные) и Винс Кларк (клавишные). Винс Кларк покинул группу после выхода дебютного альбома в 1981 году. Его место занял Алан Уайлдер (клавишные, ударные), который играл в группе с 1982 по 1995 год. После ухода Уайлдера коллектив оформился как трио: Гаан, Гор и Флетчер.

Описание: Концертные туры - Depeche Mode
1984.12.09 - Some Great Reward Tour - Hamburg (Germany) - [The World We Live In And Live In Hamburg ]
1986.04.16 - Celebration Tour - London (UK) - [Proshot]
1986.05.16 - Celebration Tour - Hamburg (Germany) - [Proshot]
1988.06.18 - Music For The Masses Tour - Pasadena, CA (USA) - [101] - РУССКАЯ ОЗВУЧКА
1990.10.14 - World Violation Tour - Frankfurt (Germany) - [Bootleg]
1990.ХХ.ХХ - World Violation Tour - Mixing (Sound San Francisco) - [Bootleg]
1993.05.25 - Devotional Tour - Brussels (Belgium) - [Bootleg]
1993.06.30 - Devotional Tour - Paris (France) - [Bootleg]
1993.ХХ.ХХ - Devotional Tour - [Devotional]
1994.03.12 - Exotic Tour - Sydney (Australia) - [Bootleg]
1994.06.24 - USA Summer Tour 94 - Holmdel, NJ (USA) - [Bootleg]
1997.04.10 - Ultra Parties - London (UK) - [Bootleg]
1997.05.16 - Ultra Parties - Los Angeles, CA (USA) - [Proshot]
1998.10.05 - The Singles 86-98 Tour - Cologne (Germany) - [Proshot]
1998.10.13 - The Singles 86-98 Tour - Munich (Germany) - [Bootleg]
1998.12.07 - The Singles 86-98 Tour - Seattle, WA (USA) - [Bootleg]
2001.06.15 - Exciter Tour - Montreal, PQ (Canada) - [Bootleg]
2001.10.10 - Exciter Tour - Paris (France) - [One Night In Paris]
2003.04.24 - Martin L. Gore - Cologne (Germany) - [Bootleg]
2003.04.30 - Martin L. Gore - Milan (Italy) - [Loverman EP2+]
2003.07.05 - Dave Gahan - Paper Monsters Tour - Paris (France) - [Live Monsters]
2003.11.18 - Dave Gahan - Paper Monsters Tour - Basel (Switzerland) - [AVO Session - Proshot]
2006.02.18 - Touring the Angel - Milan (Italy) - [Live in Milan]
2006.06.04 - Touring the Angel - Nurburgring (Germany) - [Rock am Ring - Proshot]
2007 - Dave Gahan - Hourglass Live - [нет в раздаче]
2009.06.10 - Tour of the Universe - Berlin (Germany) - [Bootleg]
2009.08.04 - Tour of the Universe - New York, NY (USA) - [Bootleg]
2010.02.06 - Tour of the Universe - Moscow (Russia) - [Bootleg]
2010.02.17 - Tour of the Universe - London (UK) - [Bootleg] - Teenage Cancer Trust (4 songs
Качество: DVDRip
Формат: AVI
Видео кодек: DivX
Аудио кодек: AC3
Видео: DivX 5, 704x528, 25fps, 2104kbps
Аудио: Dolby AC3, 48000Hz, stereo, 256kbps
Релиз от: skoche





General
Complete name : E:\1 форум\Depeche Mode - Tours (Live Video 1984-2010)\1984.12.09 - Some Great Reward Tour - Hamburg (Germany) - [The World We Live In And Live In Hamburg ].avi
Format : AVI
Format/Info : Audio Video Interleave
File size : 1.37 GiB
Duration : 1h 22mn
Overall bit rate : 2 367 Kbps
Writing application : VirtualDubMod 1.5.4.1 (build 2178/release)
Writing library : VirtualDubMod build 2178/release

Video
ID : 0
Format : MPEG-4 Visual
Format settings, BVOP : No
Format settings, QPel : No
Format settings, GMC : No warppoints
Format settings, Matrix : Default (H.263)
Codec ID : DX50
Codec ID/Hint : DivX 5
Duration : 1h 22mn
Bit rate : 2 104 Kbps
Width : 704 pixels
Height : 528 pixels
Display aspect ratio : 4:3
Frame rate : 25.000 fps
Color space : YUV
Chroma subsampling : 4:2:0
Bit depth : 8 bits
Scan type : Progressive
Compression mode : Lossy
Bits/(Pixel*Frame) : 0.226
Stream size : 1.22 GiB (89%)
Writing library : DivX 5.1.1 (Maupiti) (UTC 2003-11-19)

Audio
ID : 1
Format : AC-3
Format/Info : Audio Coding 3
Mode extension : CM (complete main)
Format settings, Endianness : Big
Codec ID : 2000
Duration : 1h 22mn
Bit rate mode : Constant
Bit rate : 256 Kbps
Channel(s) : 2 channels
Channel positions : Front: L R
Sampling rate : 48.0 KHz
Bit depth : 16 bits
Compression mode : Lossy
Stream size : 151 MiB (11%)
Alignment : Split accross interleaves
Interleave, duration : 96 ms (2.40 video frames)
Interleave, preload duration : 96 ms

pb.wtf



Скачать Записи концертных туров Depeche Mode через торрент https://pic1.kartinco.top/images/71/6dp8f.jpg Скачать, смотреть онлайн Записи концертных туров Depeche Mode бесплантно в хорошем качестве Описание: Концертные туры - Depeche Mode198109 - Some Great Reward Tour - Hamburg (Germany) - [The World We Live In And Live In Hamburg ... 10 10 10
Info! Золотая раздача, скачанное не засчитывается.
Торрент: Зарегистрирован [2014-10-27 13:52] · скачан: 18 раз
Статус: √ проверено
Размер: 34.97 GB
Как cкачать? Как скачать Записи концертных туров Depeche Mode через торрент | UTorrent

28-11-2019 20:33  

Отключить всю рекламу на сайте

28-10-2014 16:31 Записи концертных туров Depeche Mode Скачать торрент  

спасибо pb.wtf



05-01-2015 11:37 Записи концертных туров Depeche Mode Скачать торрент  

раздайте пожалуйста !pb.wtf



07-01-2015 11:30 Записи концертных туров Depeche Mode Скачать торрент  

Спасибо !!!

А вот раздать не мешало бы...pb.wtf



13-02-2015 15:15 Записи концертных туров Depeche Mode Скачать торрент  

Раздайте, встаньте на раздачуpb.wtf



    Дорогой пользователь! Огромная просьба, поблагодарите релизера, оцените раздачу и оставьте свои комментарий, если Вы скачали Записи концертных туров Depeche Mode через торрент бесплатно!
    Комментировать посты могут только пользователи прошедшие не сложную регистрацию
    Показать сообщения:    

    Записи концертных туров Depeche Mode через торрент
    Скачать бесплатно Записи концертных туров Depeche Mode
    Записи концертных туров Depeche Mode скачать торрент
    Записи концертных туров Depeche Mode смотреть онлайн
    Cкачать фильм Записи концертных туров Depeche Mode бесплатно
    Записи концертных туров Depeche Mode скачать торрент в хорошем качестве
    Записи концертных туров Depeche Mode смотреть онлайн бесплатно в хорошем качестве


    Вы не можете начинать темы
    Вы не можете отвечать на сообщения
    Вы не можете редактировать свои сообщения
    Вы не можете удалять свои сообщения
    Вы не можете голосовать в опросах
    Вы не можете прикреплять файлы к сообщениям
    Вы можете скачивать файлы