Присоединяйтесь к нам в Telegram!, здесь всегда актуальный адрес сайта, оперативная поддержка и многое другое!!

>

5.9

iTunes

7.4

iTunes

9.4

1 сезон

1

7.4

2 сезон

7.2

iTunes

7.3

1 сезон

13

6.1

iTunes

8.3

GOG

30

ULTIMATE

pack

9.9

Лицензия

ВАЖНО

ИГРА 18+

pack

7.3

RePack

MK11

7.7

RePack

jed

7.8

RePack

fifa19

8.5

RePack

RDR2

RePack

NEED FOR SPEED™ PAYBACK

5 сезон

9 сезон

Бесстыжие 9 сезон

Все сериалы

все сериалы на PB.wtf

RePack

FAR CRY 5

Anonymous, доброе утро, мы катастрофически не успеваем собрать деньги на оплату серверов, помогите нам пожалуйста 5,10,15р., для нас важна любая помощь . В качестве благодарности мы отключим Вам всю рекламу на сайте (укажите свой ник в строку Ваше имя)!

×
  
Magnet ссылка

Игорь Саруханов - Для Вас... (Видеоколлекция) [2004 г., Поп, DVDRip] pb.wtf

Игорь Саруханов - Для Вас... через торрент pb.wtf

Размер: 665 MB | Добавлен: 7 лет 1 мес. назад | Торрент скачан:19 раз
Смотреть онлайн Игорь Саруханов - Для Вас... | Скачать    Ребята, помогите собрать деньги на оплату серверов!!!

27-10-2014 14:25 Игорь Саруханов - Для Вас... Скачать торрент  

Игорь Саруханов - Для Вас... (Видеоколлекция)Год выпуска: 2004
Страна: Россия
Жанр: Поп
Продолжительность: 11 x ~ 00:03:30
Перевод: Оригинал

В ролях: Игорь Саруханов

Описание: Рано или поздно в жизни каждого человека наступает момент, когда накопленное и пережитое настолько переполняет человека, что настоящее хочется оставить прошлом и совершить сильный смелый рывок в неизвестность... (И. Саруханов)
01. Скрипка-лиса
02. Сима
03. Ты ли это?
04. Я хочу побыть один
05. Серенада
06. Придуманая любовь
07. Лодочка
08. Как же ты могла?
09. Бухта радости
10. Это не любовь
11. Barber
Качество: DVDRip
Формат: AVI
Видео кодек: XviD
Аудио кодек: AC3
Видео: Xvid 704x416, 25fps, 1711kbps
Аудио: Dolby AC3, 48000Hz, stereo, 224kbps
Релиз от: Темида





General
Complete name : E:\1 форум\Igori.Saruxanov-Videokollektsiya.2004.XviD.\Igori.Saruxanov-Buxta.radosti.2003.XviD.DVDRip-Kinozal.TV.avi
Format : AVI
Format/Info : Audio Video Interleave
File size : 45.8 MiB
Duration : 3mn 17s
Overall bit rate : 1 945 Kbps
Writing application : VirtualDubMod 1.5.10.2 (build 2540/release)
Writing library : VirtualDubMod build 2540/release

Video
ID : 0
Format : MPEG-4 Visual
Format profile : Simple@L3
Format settings, BVOP : 2
Format settings, QPel : No
Format settings, GMC : No warppoints
Format settings, Matrix : Default (MPEG)
Muxing mode : Packed bitstream
Codec ID : XVID
Codec ID/Hint : XviD
Duration : 3mn 17s
Bit rate : 1 712 Kbps
Width : 704 pixels
Height : 416 pixels
Display aspect ratio : 1.85:1
Frame rate : 25.000 fps
Color space : YUV
Chroma subsampling : 4:2:0
Bit depth : 8 bits
Scan type : Progressive
Compression mode : Lossy
Bits/(Pixel*Frame) : 0.234
Stream size : 40.3 MiB (88%)
Writing library : XviD 1.0.3 (UTC 2004-12-20)

Audio
ID : 1
Format : AC-3
Format/Info : Audio Coding 3
Mode extension : CM (complete main)
Format settings, Endianness : Big
Codec ID : 2000
Duration : 3mn 17s
Bit rate mode : Constant
Bit rate : 224 Kbps
Channel(s) : 2 channels
Channel positions : Front: L R
Sampling rate : 48.0 KHz
Bit depth : 16 bits
Compression mode : Lossy
Delay relative to video : 8ms
Stream size : 5.27 MiB (12%)
Alignment : Split accross interleaves
Interleave, duration : 40 ms (1.00 video frame)
Interleave, preload duration : 500 ms

pb.wtf



Скачать Игорь Саруханов - Для Вас... через торрент https://pic1.kartinco.top/images/71/sg81p.jpg Скачать, смотреть онлайн Игорь Саруханов - Для Вас... бесплантно в хорошем качестве Описание: Рано или поздно в жизни каждого человека наступает момент, когда накопленное и пережитое настолько переполняет человека, что ... 10 10 4
Торрент: Зарегистрирован [2014-10-27 14:25] · скачан: 19 раз
Статус: √ проверено
Размер: 665 MB
Как cкачать? Как скачать Игорь Саруханов - Для Вас... через торрент | UTorrent

28-11-2019 20:33  

Отключить всю рекламу на сайте

    Дорогой пользователь! Огромная просьба, поблагодарите релизера, оцените раздачу и оставьте свои комментарий, если Вы скачали Игорь Саруханов - Для Вас... через торрент бесплатно!
    Комментировать посты могут только пользователи прошедшие не сложную регистрацию
    Показать сообщения:    

    Игорь Саруханов - Для Вас... через торрент
    Скачать бесплатно Игорь Саруханов - Для Вас...
    Игорь Саруханов - Для Вас... скачать торрент
    Игорь Саруханов - Для Вас... смотреть онлайн
    Cкачать фильм Игорь Саруханов - Для Вас... бесплатно
    Игорь Саруханов - Для Вас... скачать торрент в хорошем качестве
    Игорь Саруханов - Для Вас... смотреть онлайн бесплатно в хорошем качестве


    Вы не можете начинать темы
    Вы не можете отвечать на сообщения
    Вы не можете редактировать свои сообщения
    Вы не можете удалять свои сообщения
    Вы не можете голосовать в опросах
    Вы не можете прикреплять файлы к сообщениям
    Вы можете скачивать файлы