Присоединяйтесь к нам в Telegram!, здесь всегда актуальный адрес сайта, оперативная поддержка и многое другое!!

>

5.9

iTunes

7.4

iTunes

9.4

1 сезон

1

7.4

2 сезон

7.2

iTunes

7.3

1 сезон

13

6.1

iTunes

8.3

GOG

30

ULTIMATE

pack

9.9

Лицензия

ВАЖНО

ИГРА 18+

pack

7.3

RePack

MK11

7.7

RePack

jed

7.8

RePack

fifa19

8.5

RePack

RDR2

RePack

NEED FOR SPEED™ PAYBACK

5 сезон

9 сезон

Бесстыжие 9 сезон

Все сериалы

все сериалы на PB.wtf

RePack

FAR CRY 5

Anonymous, доброе утро, мы катастрофически не успеваем собрать деньги на оплату серверов, помогите нам пожалуйста 5,10,15р., для нас важна любая помощь . В качестве благодарности мы отключим Вам всю рекламу на сайте (укажите свой ник в строку Ваше имя)!

×
  
Magnet ссылка

Depeche Mode - Видеография (49 клипов) / Depeche Mode: The Videos 1980-2009 [2010 г., Electronic, New Wave, Synthpop, DVD-VOB] pb.wtf

Depeche Mode - Видеография через торрент pb.wtf

Размер: 10.52 GB | Добавлен: 7 лет 1 мес. назад | Торрент скачан:134 раза
Смотреть онлайн Depeche Mode - Видеография | Скачать    Ребята, помогите собрать деньги на оплату серверов!!!

27-10-2014 15:34 Depeche Mode - Видеография Скачать торрент  

Depeche Mode - Видеография (49 клипов) / Depeche Mode: The Videos 1980-2009Год выпуска: 2010
Страна: UK
Жанр: Electronic, New Wave, Synthpop
Продолжительность: ~ 03:00:00
Перевод: Оригинал

В ролях: Дэйв Гаан (основной вокалист), Мартин Гор (клавишные, гитара, вокал), Эндрю Флетчер (клавишные) и Винс Кларк (клавишные). Винс Кларк покинул группу после выхода дебютного альбома в 1981 году, его место занял Алан Уайлдер (клавишные, ударные) который играл в группе с 1982 по 1995 год. После ухода Алана коллектив оформился как трио, и сейчас в группе выступают Гаан, Гор и Флетчер.

Описание: DVD составлен из видеоклипов , выпущенных между 1980 и 2009 годами
01. Depeche Mode - A Pain That I'm Used To
02. Depeche Mode - A Question of Lust
03. Depeche Mode - A Question Of Time
04. Depeche Mode - Barrel Of A Gun
05. Depeche Mode - Behind The Wheel
06. Depeche Mode - Blasphemous Rumours
07. Depeche Mode - But Not Tonight
08. Depeche Mode - Clean
09. Depeche mode - Clean (Bare)
10. Depeche Mode - Condemnation (Paris Mix)
11. Depeche Mode - Dream On
12. Depeche Mode - Enjoy The Silence
13. Depeche Mode - Enjoy The Silence 04
14. Depeche Mode - Everything Counts
15. Depeche Mode - Freelove
16. Depeche Mode - Halo
17. Depeche Mode - Home
18. Depeche Mode - I Feel Loved
19. Depeche Mode - I Feel You
20. Depeche Mode - In Your Room
21. Depeche Mode - It's Called A Heart
22. Depeche Mode - It's No Good
23. Depeche Mode - John The Revelator
24. Depeche Mode - Just Can't Get Enough
25. Depeche Mode - Little 15
26. Depeche mode - Love, In Itself
27. Depeche Mode - Martyr
28. Depeche Mode - Master And Servant
29. Depeche Mode - Never Let Me Down Again
30. Depeche Mode - One Caress
31. Depeche Mode - Only When I Lose Myself
32. Depeche Mode - Peace
33. Depeche Mode - People Are People
34. Depeche Mode - Personal Jesus
35. Depeche Mode - Pimpf
36. Depeche Mode - Policy Of Truth
37. Depeche Mode - Precious
38. Depeche Mode - Shake The Disease
39. Depeche Mode - Somebody
40. Depeche Mode - Strange Love 88 (US Version)
41. Depeche Mode - Strangelove (1987 Version)
42. Depeche Mode - Stripped
43. Depeche Mode - Suffer Well
44. Depeche Mode - Walking In My Shoes
45. Depeche Mode - World In My Eyes
46. Depeche Mode - Wrong
47. Depeshe Mode - Useless
48. Dave Gahan - Dirty Sticky Floors
49. Dave Gahan - Kingdom
Качество: DVD-VOB
Формат: MPEG
Видео кодек: MPEG2
Аудио кодек: AC3
Видео: MPEG2 Video, 720x576 (4:3), 25fps, 5800kbps
Аудио: Dolby AC3, 48000Hz. stereo, 192kbps
Релиз от: Nemanja Stanic





General
Complete name : E:\1 форум\Depeche Mode Videography\Dave Gahan - Dirty Sticky Floors.vob
Format : MPEG-PS
File size : 165 MiB
Duration : 3mn 32s
Overall bit rate mode : Variable
Overall bit rate : 6 529 Kbps

Video
ID : 224 (0xE0)
Format : MPEG Video
Format version : Version 2
Format profile : Main@Main
Format settings, BVOP : Yes
Format settings, Matrix : Custom
Format settings, GOP : M=3, N=12
Duration : 3mn 32s
Bit rate mode : Variable
Bit rate : 5 800 Kbps
Width : 720 pixels
Height : 576 pixels
Display aspect ratio : 4:3
Frame rate : 25.000 fps
Standard : PAL
Color space : YUV
Chroma subsampling : 4:2:0
Bit depth : 8 bits
Scan type : Interlaced
Scan order : Bottom Field First
Compression mode : Lossy
Bits/(Pixel*Frame) : 0.559
Stream size : 146 MiB (88%)
Color primaries : BT.601 PAL
Transfer characteristics : BT.470 System B, BT.470 System G
Matrix coefficients : BT.601

Audio #1
ID : 189 (0xBD)-128 (0x80)
Format : AC-3
Format/Info : Audio Coding 3
Mode extension : CM (complete main)
Format settings, Endianness : Big
Muxing mode : DVD-Video
Duration : 3mn 32s
Bit rate mode : Constant
Bit rate : 192 Kbps
Channel(s) : 2 channels
Channel positions : Front: L R
Sampling rate : 48.0 KHz
Bit depth : 16 bits
Compression mode : Lossy
Delay relative to video : -232ms
Stream size : 4.87 MiB (3%)

Audio #2
ID : 189 (0xBD)-129 (0x81)
Format : AC-3
Format/Info : Audio Coding 3
Mode extension : CM (complete main)
Format settings, Endianness : Big
Muxing mode : DVD-Video
Duration : 3mn 32s
Bit rate mode : Constant
Bit rate : 448 Kbps
Channel(s) : 6 channels
Channel positions : Front: L C R, Side: L R, LFE
Sampling rate : 48.0 KHz
Bit depth : 16 bits
Compression mode : Lossy
Delay relative to video : -328ms
Stream size : 11.4 MiB (7%)

Menu

pb.wtf



Скачать Depeche Mode - Видеография через торрент https://pic1.kartinco.top/images/71/6r5fq.jpg Скачать, смотреть онлайн Depeche Mode - Видеография бесплантно в хорошем качестве Описание: DVD составлен из видеоклипов , выпущенных между 1980 и 2009 годами Depeche Mode - A Pain That I'm Used To Depeche Mode - A ... 9.8 10 12
Info! Золотая раздача, скачанное не засчитывается.
Торрент: Зарегистрирован [2014-10-27 15:34] · скачан: 134 раз
Статус: √ проверено
Размер: 10.52 GB
Как cкачать? Как скачать Depeche Mode - Видеография через торрент | UTorrent

28-11-2019 20:33  

Отключить всю рекламу на сайте

14-05-2015 12:26 Depeche Mode - Видеография Скачать торрент  

Огромное СПАСИБО!!!!pb.wtf



14-05-2015 15:02 Depeche Mode - Видеография Скачать торрент  

Всем привет! Встаньте кто нибудь на раздачу, пожалуйста)
Захотелось клипов скачать, а раздачи нет.pb.wtf



    Дорогой пользователь! Огромная просьба, поблагодарите релизера, оцените раздачу и оставьте свои комментарий, если Вы скачали Depeche Mode - Видеография через торрент бесплатно!
    Комментировать посты могут только пользователи прошедшие не сложную регистрацию
    Показать сообщения:    

    Depeche Mode - Видеография через торрент
    Скачать бесплатно Depeche Mode - Видеография
    Depeche Mode - Видеография скачать торрент
    Depeche Mode - Видеография смотреть онлайн
    Cкачать фильм Depeche Mode - Видеография бесплатно
    Depeche Mode - Видеография скачать торрент в хорошем качестве
    Depeche Mode - Видеография смотреть онлайн бесплатно в хорошем качестве


    Вы не можете начинать темы
    Вы не можете отвечать на сообщения
    Вы не можете редактировать свои сообщения
    Вы не можете удалять свои сообщения
    Вы не можете голосовать в опросах
    Вы не можете прикреплять файлы к сообщениям
    Вы можете скачивать файлы