MEGA SALE -50% FORZA HORIZON 4 ULTIMATE+ВСЕ DLC+ОНЛАЙН всего за 599р. 299 руб. (супер цена). Внимание количество ограничено!!!

iTunes

1+1

iTunes

мы

iTunes

1

iTunes

Чернобыль

iTunes

Ральф против интернета

Лицензия

ПШазам

Лицензия

Игра престолов

Лицензия

30
pack

ВАЖНО

!!Акция!!

Alien_RageХит недели

RePack

Resident Evil 21

ИГРА 18+

pack

RePack

Metro:Exodus

!!Акция!!

Alien_Rage

RePack

fifa19

RePack

Assassins Creed: Odyssey

RePack

NEED FOR SPEED™ PAYBACK

3 сезон

9 сезон

Бесстыжие 9 сезон

Все сериалы

все сериалы на PB.wtf

RePack

FAR CRY 5
Ребята, катастрофически не хватает 7730р. для оплаты серверов за ИЮЛЬ (всвязи с блокировками трафик упал в 3 раза), 1-2р., выручайте.
  

Омен 2: Дэмиен / Damien: Omen II (Дон Тейлор / Don Taylor, Майк Ходжис / Mike Hodges) [1978, США, ужасы, BDRip,Профессиональный многоголосый pb.wtf

Омен 2: Дэмиен через торрент pb.wtf

Размер: 1.46 GB | Добавлен: 4 года 9 мес. назад | Торрент скачан:15 раз
Скачать  

27-10-2014 16:06 Омен 2: Дэмиен Скачать торрент  

Омен 2: Дэмиен / Damien: Omen II

Год выпуска: 1978
Страна: США
Жанр: ужасы

Продолжительность: 01:46:51
Перевод: Профессиональный многоголосый
Субтитры: Нет
Режиссер: Дон Тейлор / Don Taylor, Майк Ходжис / Mike Hodges
В ролях: Уильям Холден (Richard Thorn), Ли Грант (Ann Thorn), Джонатан Скотт-Тейлор («Damien» / Damien Thorn), Роберт Фоксуорт (Paul Buher), Николас Прайор (Charles Warren), Лью Эйрз (Bill Atherton), Сильвия Сидни (Aunt Marion), Лэнс Хенриксен (Sergeant Neff), Элизабет Шепард (Joan Hart), Лукас Донат (Mark Thorn), Аллан Арбас (Pasarian), Фриц Форд (Murray)
Описание:
Семь лет прошло с того дня, как Дэмиен чудом избежал смерти от руки своего отца. Теперь ему 13, и он живет вместе со своим дядей Ричардом Торном, тетей и двоюродным братом Марком. Пока юный Антихрист познает свою чудовищную силу и как ею пользоваться, за его безопасностью следят множество служителей Дьявола, жестоко уничтожая всех неугодных.
Его дядя постепенно понимает, что мальчик не так невинен как может показаться, и ему открывается чудовищная правда. Вооружившись семью древними кинжалами, Торн собирается очистить мир от самой страшной нечисти на земле, но многие пытались убить сына Сатаны, и теперь все они в могиле. Сможет ли это сделать Ричард Торн или присоединится к своим предшественникам в качестве трупа?
Рейтинг
kinopoisk.ru: 7.109 (4079)
imdb.com: 6.20 (18 183)
MPAA: R - Лицам до 17 лет обязательно присутствие взрослого
Качество: BDRip
Формат: AVI
Видео кодек: XviD
Аудио кодек:AC3
Видео: XviD, 720x304 (2.35:1), 1559 kbps, 23,976 fps, 0,297 bpp
Аудио: AC3 / 5 / 48 kHz / 384 kbps / 16 bit

General
Complete name : D:\torrent\Omen II_Damien_1978_BDRip_1.46.avi
Format : AVI
Format/Info : Audio Video Interleave
File size : 1.46 GiB
Duration : 1h 46mn
Overall bit rate : 1 952 Kbps
Writing application : VirtualDubMod 1.5.10.2 (build 2540/release)
Writing library : VirtualDubMod build 2540/release

Video
ID : 0
Format : MPEG-4 Visual
Format profile : Advanced Simple@L5
Format settings, BVOP : 1
Format settings, QPel : No
Format settings, GMC : No warppoints
Format settings, Matrix : Custom
Codec ID : XVID
Codec ID/Hint : XviD
Duration : 1h 46mn
Bit rate : 1 559 Kbps
Width : 720 pixels
Height : 304 pixels
Display aspect ratio : 2.35:1
Frame rate : 23.976 fps
Color space : YUV
Chroma subsampling : 4:2:0
Bit depth : 8 bits
Scan type : Progressive
Compression mode : Lossy
Bits/(Pixel*Frame) : 0.297
Stream size : 1.16 GiB (80%)
Writing library : XviD 1.2.1 (UTC 2008-12-04)

Audio
ID : 1
Format : AC-3
Format/Info : Audio Coding 3
Mode extension : CM (complete main)
Codec ID : 2000
Duration : 1h 46mn
Bit rate mode : Constant
Bit rate : 384 Kbps
Channel(s) : 5 channels
Channel positions : Front: L C R, Side: L R
Sampling rate : 48.0 KHz
Bit depth : 16 bits
Compression mode : Lossy
Stream size : 294 MiB (20%)
Alignment : Split accross interleaves
Interleave, duration : 42 ms (1.00 video frame)
Interleave, preload duration : 500 ms




pb.wtf



Скачать Омен 2: Дэмиен через торрент http://i5.imageban.ru/out/2014/10/27/da1d21e515a5b373e9d6416765e6cb55.jpg Скачать фильм Омен 2: Дэмиен через торрент бесплантно в хорошем качестве Описание: Семь лет прошло с того дня, как Дэмиен чудом избежал смерти от руки своего отца. Теперь ему 13, и он живет вместе со своим дядей ... 10 10 7
Торрент: Зарегистрирован [2014-10-27 16:17] · скачан: 15 раз
Статус: √ проверено
Размер: 1.46 GB
Как cкачать? Как скачать Омен 2: Дэмиен через торрент | qTorrent


>> Регистрируемся здесь <<






Отзывы и комментарии о схеме читаем и пишем здесь: ---> Отзывы и комментарии о схеме

Новые благодарочки в телеграм довольных пользователей:
скриншот   скриншот   скриншот   скриншот   скриншот
    Дорогой пользователь! Огромная просьба, поблагодарите релизера, оцените раздачу и оставьте свои комментарий, если Вы скачали Омен 2: Дэмиен через торрент бесплатно! Внесите свою лепту в развитие PiratBit!
    Комментировать посты могут только пользователи прошедшие не сложную регистрацию
    Показать сообщения:    

    Омен 2: Дэмиен через торрент
    Скачать бесплатно Омен 2: Дэмиен
    Омен 2: Дэмиен скачать торрент
    Омен 2: Дэмиен смотреть онлайн
    Cкачать фильм Омен 2: Дэмиен бесплатно
    Омен 2: Дэмиен скачать торрент в хорошем качестве
    Омен 2: Дэмиен смотреть онлайн бесплатно в хорошем качестве


    Вы не можете начинать темы
    Вы не можете отвечать на сообщения
    Вы не можете редактировать свои сообщения
    Вы не можете удалять свои сообщения
    Вы не можете голосовать в опросах
    Вы не можете прикреплять файлы к сообщениям
    Вы можете скачивать файлы