MEGA SALE -50% FORZA HORIZON 4 ULTIMATE+ВСЕ DLC+ОНЛАЙН всего за 599р. 299 руб. (супер цена). Внимание количество ограничено!!!

iTunes

1+1

iTunes

мы

iTunes

1

iTunes

Чернобыль

iTunes

Ральф против интернета

Лицензия

ПШазам

Лицензия

Игра престолов

Лицензия

30
pack

ВАЖНО

!!Акция!!

Alien_RageХит недели

RePack

Resident Evil 21

ИГРА 18+

pack

RePack

Metro:Exodus

!!Акция!!

Alien_Rage

RePack

fifa19

RePack

Assassins Creed: Odyssey

RePack

NEED FOR SPEED™ PAYBACK

3 сезон

9 сезон

Бесстыжие 9 сезон

Все сериалы

все сериалы на PB.wtf

RePack

FAR CRY 5
Ребята, катастрофически не хватает 7730р. для оплаты серверов за ИЮЛЬ (всвязи с блокировками трафик упал в 3 раза), 1-2р., выручайте.
  

Омен III: Последний конфликт / The Final Conflict (Грэм Бейкер / Graham Baker) [1981, США, Великобритания, ужасы, триллер, BDRip,Профессиональный многоголосый pb.wtf

Омен III: Последний конфликт через торрент pb.wtf

Размер: 1.46 GB | Добавлен: 4 года 9 мес. назад | Торрент скачан:13 раз
Скачать  

27-10-2014 17:34 Омен III: Последний конфликт Скачать торрент  

Омен III: Последний конфликт / The Final Conflict

Год выпуска: 1981
Страна: США, Великобритания
Жанр: ужасы, триллер

Продолжительность: 01:48:20
Перевод: Профессиональный многоголосый
Субтитры: Нет
Режиссер: Грэм Бейкер / Graham Baker
В ролях: Сэм Нил (Damien Thorn), Россано Брацци (DeCarlo), Дон Гордон (Harvey Dean), Лиза Хэрроу (Kate Reynolds), Барнеби Холм (Peter Reynolds), Мейсон Эдамс (President), Роберт Арден (American Ambassador), Люин Уиллоби (Barbara Dean), Марк Бойл (Brother Benito), Милош Кирек (Brother Martin), Томми Дагган (Brother Mattius), Луи Махони (Brother Paulo)
Описание:
Дэмиену Торну теперь 32. Стремясь к власти над всем миром он предан только себе и своему родному отцу - Сатане. Чтобы достичь своей цели, он убивает всех на своем пути - будь то друг, враг, верный слуга или любовница.
Темным силам противостоит лишь поклявшийся уничтожить дьявольское отродье старый монах с семью святыми кинжалами, выкованными специально для этого дела. Но хватит ли у него сил для осуществления своего плана или умрет как все, и мир повергнется в пучину хаоса?
Рейтинг
kinopoisk.ru: 6.474 (2854)
imdb.com: 5.50 (11 515)
MPAA: R - Лицам до 17 лет обязательно присутствие взрослого
Качество: BDRip
Формат: AVI
Видео кодек: XviD
Аудио кодек:AC3
Видео: XviD, 720x304 (2.35:1), 1534 kbps, 23,976 fps, 0,292 bpp
Аудио: AC3 / 5.1 / 48 kHz / 384 kbps / 16 bit

General
Complete name : D:\torrent\Omen III_The Final Conflict_1981_BDRip.1.46 .avi
Format : AVI
Format/Info : Audio Video Interleave
File size : 1.46 GiB
Duration : 1h 48mn
Overall bit rate : 1 928 Kbps
Writing application : VirtualDubMod 1.5.10.2 (build 2540/release)
Writing library : VirtualDubMod build 2540/release

Video
ID : 0
Format : MPEG-4 Visual
Format profile : Advanced Simple@L5
Format settings, BVOP : 1
Format settings, QPel : No
Format settings, GMC : No warppoints
Format settings, Matrix : Custom
Codec ID : XVID
Codec ID/Hint : XviD
Duration : 1h 48mn
Bit rate : 1 535 Kbps
Width : 720 pixels
Height : 304 pixels
Display aspect ratio : 2.35:1
Frame rate : 23.976 fps
Color space : YUV
Chroma subsampling : 4:2:0
Bit depth : 8 bits
Scan type : Progressive
Compression mode : Lossy
Bits/(Pixel*Frame) : 0.292
Stream size : 1.16 GiB (80%)
Writing library : XviD 1.2.1 (UTC 2008-12-04)

Audio
ID : 1
Format : AC-3
Format/Info : Audio Coding 3
Mode extension : CM (complete main)
Codec ID : 2000
Duration : 1h 48mn
Bit rate mode : Constant
Bit rate : 384 Kbps
Channel(s) : 6 channels
Channel positions : Front: L C R, Side: L R, LFE
Sampling rate : 48.0 KHz
Bit depth : 16 bits
Compression mode : Lossy
Stream size : 298 MiB (20%)
Alignment : Split accross interleaves
Interleave, duration : 42 ms (1.00 video frame)
Interleave, preload duration : 500 ms



pb.wtf



Скачать Омен III: Последний конфликт через торрент http://i5.imageban.ru/out/2014/10/27/04ea0b358b236a93ef79086ff619065e.jpg Скачать фильм Омен III: Последний конфликт через торрент бесплантно в хорошем качестве Описание: Дэмиену Торну теперь 3 Стремясь к власти над всем миром он предан только себе и своему родному отцу - Сатане. Чтобы достичь ... 10 10 5
Торрент: Зарегистрирован [2014-10-27 17:34] · скачан: 13 раз
Статус: √ проверено
Размер: 1.46 GB
Как cкачать? Как скачать Омен III: Последний конфликт через торрент | qTorrent



Последний раз редактировалось: jump88 (2014-10-28 08:07), всего редактировалось 2 раз(а)


>> Регистрируемся здесь <<






Отзывы и комментарии о схеме читаем и пишем здесь: ---> Отзывы и комментарии о схеме

Новые благодарочки в телеграм довольных пользователей:
скриншот   скриншот   скриншот   скриншот   скриншот
    Дорогой пользователь! Огромная просьба, поблагодарите релизера, оцените раздачу и оставьте свои комментарий, если Вы скачали Омен III: Последний конфликт через торрент бесплатно! Внесите свою лепту в развитие PiratBit!
    Комментировать посты могут только пользователи прошедшие не сложную регистрацию
    Показать сообщения:    

    Омен III: Последний конфликт через торрент
    Скачать бесплатно Омен III: Последний конфликт
    Омен III: Последний конфликт скачать торрент
    Омен III: Последний конфликт смотреть онлайн
    Cкачать фильм Омен III: Последний конфликт бесплатно
    Омен III: Последний конфликт скачать торрент в хорошем качестве
    Омен III: Последний конфликт смотреть онлайн бесплатно в хорошем качестве


    Вы не можете начинать темы
    Вы не можете отвечать на сообщения
    Вы не можете редактировать свои сообщения
    Вы не можете удалять свои сообщения
    Вы не можете голосовать в опросах
    Вы не можете прикреплять файлы к сообщениям
    Вы можете скачивать файлы