2 сезон

iTunes

MVO

1

2 сезон

iTunes

iTunes

1 сезон

RePack

30

Новинка

ВАЖНО

ИГРА 18+

pack

RePack

MK11
pack

Легкие деньги

RePack

jed

RePack

fifa19

RePack

RDR2

RePack

NEED FOR SPEED™ PAYBACK

4 сезон

9 сезон

Бесстыжие 9 сезон

Все сериалы

все сериалы на PB.wtf

RePack

FAR CRY 5

Anonymous, добрый вечер, мы не успеваем собрать деньги на оплату серверов за декабрь и январь, помогите нам пожалуйста в это трудное время. В качестве благодарности мы отключим Вам всю рекламу на сайте (укажите свой ник в строку Ваше имя)!

×
  
Magnet ссылка

Чебурашка / Cheburashka (Макото Накамура / Makoto Nakamura) [2014, мультфильм, детский, семейный, DVD5] R5 pb.wtf

Чебурашка через торрент pb.wtf

Размер: 3.88 GB | Добавлен: 6 лет 2 мес. назад | Торрент скачан:193 раза
Скачать  

27-10-2014 17:37 Чебурашка Скачать торрент  


Чебурашка / Cheburashka
«Наш няшка – Чебурашка»
Страна: Япония, Россия
Студия: Ffango Entertoyment
Жанр: мультфильм, детский, семейный
Год выпуска: 2014
Российская премьера: 5 июня 2014
Дата выхода DVD: 25 сентября 2014
Продолжительность: 01:16:05
Перевод: Оригинал [Лицензия]
Cубтитры: нет
Оригинальная аудиодорожка: русский
Режиссер: Макото Накамура / Makoto Nakamura
Роли озвучивали: Лариса Брохман, Владимир Ферапонтов, Ольга Зверева, Дмитрий Филимонов, Александр Пожаров, Александр Груздев, Ольга Шорохова, Гарри Бардин, Владимир Орёл, Антон Морозов
Описание: Мультфильм из трех историй: «Чебурашка и цирк», «Чебурашка идет в зоопарк» и «Советы Шапокляк». Прологом служит история о появлении Чебурашки в ящике из-под апельсинов, его знакомстве с крокодилом Геной и обретении друзей.
«Чебурашка и цирк» — история о дружбе и мечте. Гена и Чебурашка помогают девочке Маше научиться ходить по канату и осуществляют ее заветное желание — выступать в цирке. В серии «Чебурашка идет в зоопарк» Гена заболел, и Чебурашка отправился вместо него «работать крокодилом» в зоопарке. Возникает веселая путаница. Заключительная история — «Советы Шапокляк». Герои приходят на помощь фокуснику, потерявшему внучку. А Шапокляк открывает бюро платных бесполезных советов.

Бонусы: нет

Релиз группы:
Качество: DVD5 R5
Формат: DVD-Video
Видео кодек: MPEG2
Аудио кодек: AC3
Видео: PAL 16:9 (720x576(0.670)) MPEG Video, 25,000 кадр/сек, 6951 Кбит/сек
Аудио: Russian (Dolby AC3, 2 ch) 192 Кбит/сек, 48,0 КГц



Title: Cheburashka.2013.DVD5
Size: 3.88 Gb ( 4 064 290,00 KBytes ) - DVD-5
Enabled regions: 1, 2, 3, 4, 5, 6, 7, 8

VTS_01 :
Play Length: 00:00:16+01:15:49
Video: PAL 16:9 (720x576) VBR, Auto Letterboxed
Audio:
Russian (Dolby AC3, 2 ch)

* Menus Information *

VIDEO_TS Menu
Video:
NTSC 4:3 (720x480) VBR
Auto Pan&Scan, Auto Letterboxed
Russian Language Unit :
Title Menu

VTS_01 Menu
Video:
PAL 16:9 (720x576) VBR
Auto Letterboxed
Audio:
Not specified (Dolby AC3, 2 ch)
Russian Language Unit :
Root Menu
Chapter (PTT) Menu
Общее
Полное имя : F:\Новинки 2014\Cheburashka.2013.DVD5\VIDEO_TS\VTS_01_2.VOB
Формат : MPEG-PS
Размер файла : 1024 Мбайт
Продолжительность : 19 м.
Режим общего битрейта : Переменный
Общий поток : 7288 Кбит/сек

Видео
Идентификатор : 224 (0xE0)
Формат : MPEG Video
Версия формата : Version 2
Профиль формата : Main@Main
Параметр BVOP формата : Да
Параметр матрицы формата : Выборочная
Параметр GOP формата : M=3, N=15
Продолжительность : 19 м.
Вид битрейта : Переменный
Битрейт : 6951 Кбит/сек
Максимальный битрейт : 8500 Кбит/сек
Ширина : 720 пикселей
Высота : 576 пикселей
Соотношение сторон : 16:9
Частота кадров : 25,000 кадров/сек
Стандарт вещания : PAL
Цветовое пространство : YUV
Субдискретизация насыщенности : 4:2:0
Битовая глубина : 8 бит
Тип развёртки : Прогрессивная
Метод сжатия : С потерями
Бит/(Пиксели*Кадры) : 0.670
Временной код первого кадра : 00:20:43:17
Оригинал временного кода : Group of pictures header
Размер потока : 976 Мбайт (95%)

Аудио
Идентификатор : 189 (0xBD)-128 (0x80)
Формат : AC-3
Формат/Информация : Audio Coding 3
Расширение режима : CM (complete main)
Параметр Endianness формата : Big
Режим смешивания : DVD-Video
Продолжительность : 19 м.
Вид битрейта : Постоянный
Битрейт : 192 Кбит/сек
Каналы : 2 канала
Расположение каналов : Front: L R
Частота : 48,0 КГц
Битовая глубина : 16 бит
Метод сжатия : С потерями
Задержка видео : -368 мс.
Размер потока : 27,0 Мбайт (3%)










pb.wtf



Скачать Чебурашка через торрент http://i68.fastpic.ru/big/2014/1027/fc/bb44db07f7a0cade6c573423116baefc.jpg Скачать фильм Чебурашка через торрент бесплантно в хорошем качестве Описание: Мультфильм из трех историй: «Чебурашка и цирк», «Чебурашка идет в зоопарк» и «Советы Шапокляк». Прологом служит история о ... 10 10 10
Info! Золотая раздача, скачанное не засчитывается.
Торрент: Зарегистрирован [2014-10-27 17:37] · скачан: 193 раз
Статус: √ проверено
Размер: 3.88 GB
Как cкачать? Как скачать Чебурашка через торрент | UTorrent

28-11-2019 20:33  

Отключить всю рекламу на сайте

27-10-2014 17:50 Чебурашка Скачать торрент  

для современного ребенка выпустили ретро СССР ностальжи...предел мечтаний: апельсины, цирк, зоопарк...:)pb.wtf



18-12-2014 18:19 Чебурашка Скачать торрент  

Спасибо!pb.wtf



25-02-2015 11:17 Чебурашка Скачать торрент  

Спасибо!pb.wtf



    Дорогой пользователь! Огромная просьба, поблагодарите релизера, оцените раздачу и оставьте свои комментарий, если Вы скачали Чебурашка через торрент бесплатно! Внесите свою лепту в развитие PiratBit!
    Комментировать посты могут только пользователи прошедшие не сложную регистрацию
    Показать сообщения:    

    Чебурашка через торрент
    Скачать бесплатно Чебурашка
    Чебурашка скачать торрент
    Чебурашка смотреть онлайн
    Cкачать фильм Чебурашка бесплатно
    Чебурашка скачать торрент в хорошем качестве
    Чебурашка смотреть онлайн бесплатно в хорошем качестве


    Вы не можете начинать темы
    Вы не можете отвечать на сообщения
    Вы не можете редактировать свои сообщения
    Вы не можете удалять свои сообщения
    Вы не можете голосовать в опросах
    Вы не можете прикреплять файлы к сообщениям
    Вы можете скачивать файлы