2 сезон

iTunes

1 сезон

1

iTunes

iTunes

iTunes

1 сезон

RePack

30

ИГРА 18+

pack

ВАЖНО

!!Акция!!

Alien_RageХит недели

RePack

MK11
pack

Забери бонус

RePack

jed

!!Акция!!

Alien_Rage

RePack

fifa19

RePack

Assassins Creed: Odyssey

RePack

NEED FOR SPEED™ PAYBACK

4 сезон

9 сезон

Бесстыжие 9 сезон

Все сериалы

все сериалы на PB.wtf

RePack

FAR CRY 5
  

Почтальон Пэт / Postman Pat: The Movie (Майкл Д’Иса-Хоган) [2014 г., мультфильм, комедия, семейный, BDRip, Дубляж, Лицензия] pb.wtf

Почтальон Пэт через торрент pb.wtf

Размер: 1.46 GB | Добавлен: 6 лет назад | Торрент скачан:297 раз
Скачать  

27-10-2014 18:11 Почтальон Пэт Скачать торрент  

Почтальон Пэт / Postman Pat: The Movie
Год выпуска: 2014
Страна: Великобритания, США / Classic Media, RGH Entertainment, Rubicon Group Holding
Жанр: мультфильм, комедия, семейный
Продолжительность: 01:27:17
Перевод: Дубляж (Лицензия)

Режиссер: Майкл Д’Иса-Хоган

В ролях: Джим Бродбент, Джейн Карр, Робин Аткин Даунс, Сьюзэн Дюрден, Грег Эллис, Руперт Гринт, Дэн Хилдебранд, Ронан Китинг, Стивен Мэнгэн, Парминдер К. Награ

Описание: Сколько нужно почтальонов для спасения мира? Достаточно одного, если он работает в паре с любопытным котом, готовым к любым приключениям.

Качество: BDRip (Рип с Blu-ray [3D/2D] 1080p AVC DTS-HD 5.1)
Формат: AVI
Видео кодек: XviD
Аудио кодек: AC3
Видео: MPEG4, XviD, 720x384 (1.875), 23.976 fps, 1 944 Kbps (0.293 bit/pixel)
Аудио: AC-3, 48.0 KHz, 6 ch, 448 Kbps, CBR

скриншот   скриншот   скриншот   скриншот   скриншот   скриншот   скриншот   скриншот  

Общее
Полное имя : G:\кино\Почтальон Пэт.2014.BDRip.avi
Формат : AVI
Формат/Информация : Audio Video Interleave
Размер файла : 1,46 Гбайт
Продолжительность : 1 ч. 27 м.
Общий поток : 2401 Кбит/сек
Программа кодирования : VirtualDubMod 1.5.10.3 | www.virtualdub-fr.org || (build 2550/release)
Библиотека кодирования : VirtualDubMod build 2550/release

Видео
Идентификатор : 0
Формат : MPEG-4 Visual
Профиль формата : Advanced Simple@L5
Параметр BVOP формата : 1
Параметр QPel формата : Нет
Параметр GMC формата : Без точки перехода
Параметр матрицы формата : Default (MPEG)
Идентификатор кодека : XVID
Идентификатор кодека/Подсказка : XviD
Продолжительность : 1 ч. 27 м.
Битрейт : 1944 Кбит/сек
Ширина : 720 пикселей
Высота : 384 пикселя
Соотношение сторон : 1,85:1
Частота кадров : 23,976 кадра/сек
Цветовое пространство : YUV
Субдискретизация насыщенности : 4:2:0
Битовая глубина : 8 бит
Тип развёртки : Прогрессивная
Метод сжатия : С потерями
Бит/(Пиксели*Кадры) : 0.293
Размер потока : 1,18 Гбайт (81%)
Библиотека кодирования : XviD 1.2.1 (UTC 2008-12-04)

Аудио
Идентификатор : 1
Формат : AC-3
Формат/Информация : Audio Coding 3
Расширение режима : CM (complete main)
Параметр Endianness формата : Big
Идентификатор кодека : 2000
Продолжительность : 1 ч. 27 м.
Вид битрейта : Постоянный
Битрейт : 448 Кбит/сек
Каналы : 6 каналов
Расположение каналов : Front: L C R, Side: L R, LFE
Частота : 48,0 КГц
Битовая глубина : 16 бит
Метод сжатия : С потерями
Размер потока : 280 Мбайт (19%)
Выравнивание : Разделение по промежуткам
Продолжительность промежутка : 42 мс. (1,00 видеокадр)
Время предзагрузки промежутка : 500 мс.

pb.wtf



Скачать Почтальон Пэт через торрент http://pic.kartinco.top/images/7/7hjxx.jpg Скачать фильм Почтальон Пэт через торрент бесплантно в хорошем качестве Описание: Сколько нужно почтальонов для спасения мира? Достаточно одного, если он работает в паре с любопытным котом, готовым к любым ... 8.3 10 6
Торрент: Зарегистрирован [2014-10-27 18:11] · скачан: 297 раз
Статус: √ проверено
Размер: 1.46 GB
Как cкачать? Как скачать Почтальон Пэт через торрент | qTorrent

% Раздел Тема Автор DL S | L
Зарубежные Мультфильмы (DVD) [ 4.31 GB ] Почтальон Пэт / Postman Pat: The Movie [2014 мультфильм DVD5] R5 voovaz Скачать
1 | 0
3D Мультфильмы [ 10.01 GB ] Почтальон Пэт в 3Д / Postman Pat: The Movie 3D [2014 Мультфильм полнометражный BDrip 1080p]Full OverUnder / Вертикальная стереопара serega768 Скачать
1 | 0
Иностранные мультфильмы [ 1.48 GB ] Почтальон Пэт / Postman Pat: The Movie [2014 мультфильм HDRip - / ] _KaisiK_ Скачать
1 | 0

28-11-2019 20:33  

Отключить всю рекламу на сайте

    Дорогой пользователь! Огромная просьба, поблагодарите релизера, оцените раздачу и оставьте свои комментарий, если Вы скачали Почтальон Пэт через торрент бесплатно! Внесите свою лепту в развитие PiratBit!
    Комментировать посты могут только пользователи прошедшие не сложную регистрацию
    Показать сообщения:    

    Почтальон Пэт через торрент
    Скачать бесплатно Почтальон Пэт
    Почтальон Пэт скачать торрент
    Почтальон Пэт смотреть онлайн
    Cкачать фильм Почтальон Пэт бесплатно
    Почтальон Пэт скачать торрент в хорошем качестве
    Почтальон Пэт смотреть онлайн бесплатно в хорошем качестве


    Вы не можете начинать темы
    Вы не можете отвечать на сообщения
    Вы не можете редактировать свои сообщения
    Вы не можете удалять свои сообщения
    Вы не можете голосовать в опросах
    Вы не можете прикреплять файлы к сообщениям
    Вы можете скачивать файлы