Ссылка на приватное зеркало нашего сайта всего за 1$. Внимание количество ограничено!!!

2 сезон

iTunes

1 сезон

1

2 сезон

2 сезон

iTunes

1 сезон

RePack

30

Ultimate

ВАЖНО

ИГРА 18+

pack

RePack

MK11
pack

Забери бонус

RePack

jed

!!Акция!!

Alien_Rage

RePack

fifa19

RePack

Assassins Creed: Odyssey

RePack

NEED FOR SPEED™ PAYBACK

4 сезон

9 сезон

Бесстыжие 9 сезон

Все сериалы

все сериалы на PB.wtf

RePack

FAR CRY 5
  

Водитель / The Driver / Сезон:1 / Серии:1-3 из 3 (Джэми Пэйн) [2014 г., Драма, криминал, HDTVRip] DVO (HamsterStudio) pb.wtf

Водитель через торрент pb.wtf

Размер: 1.43 GB | Добавлен: 6 лет назад | Торрент скачан:114 раз
Скачать  

27-10-2014 18:34 Водитель Скачать торрент  

Водитель / The Driver Год выпуска: 2014
Страна: Великобритания Red Production
Жанр: Драма, криминал
Продолжительность: 3 x ~ 00:55:00
Перевод: Любительский двухголосый

HamsterStudio
Озвучка: Алексей Соловьёв и Анастасия Снегирёва
Перевод: Семен Пилипейченко
Работа с видео, монтаж и сведение звука: Роман Мырон


Режиссер: Джэми Пэйн
Продюссер: Дэниэл Блоклхёрст, Полли Хилл, Элисон Луз
Сценарий: Дэниэл Блоклхёрст

Премьера в мире: 23 сентября 2014



В ролях: Дэвид Моррисси, Клоди Блейкли, Никола Шиндлер, Полли Хилл, Колм Мини, Ли Росс, Льюис Рэйнер, Иэн Харт

Описание: Винс МакКи - обычный человек, который из-за семейных тайн, разочарований в работе и карьере, да и целом в жизни - принимает судьбоносное решение. Он соглашается стать водителем для преступной группировки. Как он и хотел - его мир переворачивается с ног на голову. Но одни перемены влекут за собой другие, и как ему не утонуть в этом криминальном море событий, Винс еще не знает.

Качество: HDTVRip
Формат: AVI
Видео кодек: XviD
Аудио кодек: MP3
Видео: Xvid, 720x400, 25fps, 974kbps
Аудио#1: MP3, 48000Hz, stereo, 128kbps Русский
Аудио#2: MP3, 48000Hz, stereo, 128kbps Английский
Релиз от: zeka80





General
Complete name : H:\11 03 2014\The.Driver.S01.HDTVRip.HamsterStudio\The.Driver.S01E01.HDTVRip.HamsterStudio.org.avi
Format : AVI
Format/Info : Audio Video Interleave
File size : 512 MiB
Duration : 57mn 27s
Overall bit rate : 1 245 Kbps
Writing application : VirtualDubMod 1.5.10.2 (build 2540/release)
Writing library : VirtualDubMod build 2540/release

Video
ID : 0
Format : MPEG-4 Visual
Format profile : Advanced Simple@L5
Format settings, BVOP : 2
Format settings, QPel : No
Format settings, GMC : No warppoints
Format settings, Matrix : Default (MPEG)
Codec ID : XVID
Codec ID/Hint : XviD
Duration : 57mn 27s
Bit rate : 974 Kbps
Width : 720 pixels
Height : 400 pixels
Display aspect ratio : 16:9
Frame rate : 25.000 fps
Color space : YUV
Chroma subsampling : 4:2:0
Bit depth : 8 bits
Scan type : Progressive
Compression mode : Lossy
Bits/(Pixel*Frame) : 0.135
Stream size : 400 MiB (78%)
Writing library : XviD 1.2.1 (UTC 2008-12-04)

Audio #1
ID : 1
Format : MPEG Audio
Format version : Version 1
Format profile : Layer 3
Codec ID : 55
Codec ID/Hint : MP3
Duration : 57mn 27s
Bit rate mode : Constant
Bit rate : 128 Kbps
Channel(s) : 2 channels
Sampling rate : 48.0 KHz
Compression mode : Lossy
Stream size : 52.6 MiB (10%)
Alignment : Aligned on interleaves
Interleave, duration : 40 ms (1.00 video frame)
Interleave, preload duration : 504 ms

Audio #2
ID : 2
Format : MPEG Audio
Format version : Version 1
Format profile : Layer 3
Codec ID : 55
Codec ID/Hint : MP3
Duration : 57mn 27s
Bit rate mode : Constant
Bit rate : 128 Kbps
Channel(s) : 2 channels
Sampling rate : 48.0 KHz
Compression mode : Lossy
Stream size : 52.6 MiB (10%)
Alignment : Aligned on interleaves
Interleave, duration : 40 ms (1.00 video frame)
Interleave, preload duration : 504 ms

Внимание! Раздача ведётся путём добавления новых серий; при каждом добавлении создаётся новый торрент-файл. Чтобы начать дозакачку новой серии, пользователям необходимо сделать следующее:
(1) остановить скачивание,
(2) удалить старый торрент-файл у себя из клиента (старые серии удалять не надо),
(3) скачать новый торрент-файл и запустить его у себя в клиенте вместо старого, при этом указать клиенту путь в старую папку куда и должно происходить скачивание новых серий.
Ваш клиент при этом должен произвести хеширование (проверку) старой папки (если не производит сам - помогите ему сделать это), и будет докачивать только те серии которых у вас ещё нет. Старые серии при этом не удаляются, а продолжают раздаваться!
Eсли вы уже удалили старые серии, то предотвратить повторную закачку старых серий можно, отжав галочку в соответствующих местах при запуске нового торрента.
Добавил 3 серию!Обновите торрент!!! pb.wtf



Скачать Водитель через торрент http://pic.kartinco.top/images/7/7p95x.jpg Скачать фильм Водитель через торрент бесплантно в хорошем качестве Описание: Винс МакКи - обычный человек, который из-за семейных тайн, разочарований в работе и карьере, да и целом в жизни - принимает ... 8.6 10 11
Торрент: Зарегистрирован [2014-11-04 17:26] · скачан: 114 раз
Статус: √ проверено
Размер: 1.43 GB
Как cкачать? Как скачать Водитель через торрент | qTorrent



Последний раз редактировалось: lug30 (2014-11-04 17:26), всего редактировалось 1 раз

28-11-2019 20:33  

Отключить всю рекламу на сайте

27-10-2014 19:06 Водитель Скачать торрент  

Надо глянуть, всё что связано с шоферским делом нельзя упускать )pb.wtf



27-10-2014 19:14 Водитель Скачать торрент  

перевозчик сериальный?? глянул 1 серию.интересный.pb.wtf



27-10-2014 20:28 Водитель Скачать торрент  

kpuctaluk,
Перевозчик сериальный уже один есть и довольно крутой. )pb.wtf



31-10-2014 16:47 Водитель Скачать торрент  

следущаЯ когда серия?pb.wtf



04-11-2014 17:28 Водитель Скачать торрент  

Добавил 3 серию!Обновляемся!!!pb.wtf



13-11-2014 16:17 Водитель Скачать торрент  

А сколько всего серий будет? и сезонов?pb.wtf



    Дорогой пользователь! Огромная просьба, поблагодарите релизера, оцените раздачу и оставьте свои комментарий, если Вы скачали Водитель через торрент бесплатно! Внесите свою лепту в развитие PiratBit!
    Комментировать посты могут только пользователи прошедшие не сложную регистрацию
    Показать сообщения:    

    Водитель через торрент
    Скачать бесплатно Водитель
    Водитель скачать торрент
    Водитель смотреть онлайн
    Cкачать фильм Водитель бесплатно
    Водитель скачать торрент в хорошем качестве
    Водитель смотреть онлайн бесплатно в хорошем качестве


    Вы не можете начинать темы
    Вы не можете отвечать на сообщения
    Вы не можете редактировать свои сообщения
    Вы не можете удалять свои сообщения
    Вы не можете голосовать в опросах
    Вы не можете прикреплять файлы к сообщениям
    Вы можете скачивать файлы