Ссылка на приватное зеркало нашего сайта всего за 1$. Внимание количество ограничено!!!

2 сезон

iTunes

1 сезон

1

2 сезон

2 сезон

iTunes

1 сезон

RePack

30

Ultimate

ВАЖНО

ИГРА 18+

pack

RePack

MK11
pack

Забери бонус

RePack

jed

!!Акция!!

Alien_Rage

RePack

fifa19

RePack

Assassins Creed: Odyssey

RePack

NEED FOR SPEED™ PAYBACK

4 сезон

9 сезон

Бесстыжие 9 сезон

Все сериалы

все сериалы на PB.wtf

RePack

FAR CRY 5
  

Геракл / Hercules (Бретт Рэтнер / Brett Ratner) [2014, США, боевик, приключения, BDRip 720p, Дубляж [Extended Cut] [Line] pb.wtf

Геракл через торрент pb.wtf

Размер: 3.89 GB | Добавлен: 6 лет 1 мес. назад | Торрент скачан:5421 раз
Скачать  

28-10-2014 01:04 Геракл Скачать торрент  



Геракл / Hercules


Год выпуска: 2014
Страна: США
Жанр: боевик, приключения
Продолжительность: 01:41:35
Перевод: Дубляж - [Чистый звук]
Субтитры: русские (Forced [Dimanchez])- на расширенные сцены, английские (Full), английские (SDH),
Режиссер: Бретт Рэтнер / Brett Ratner
В ролях: Дуэйн Джонсон (Hercules), Иэн МакШейн (Amphiaraus), Джон Хёрт (Lord Cotys), Руфус Сьюэлл (Autolycus), Аксель Хенни (Tydeus), Ингрид Больсё Бердаль (Atalanta), Рис Ричи (Iolaus), Джозеф Файнс (King Eurystheus), Тобиас Зантельман (Rhesus), Питер Муллан (Sitacles), Ребекка Фергюсон (Ergenia), Исаак Эндрюс (Arius)
Описание:
Более тысячи лет назад измученная душа скиталась по Земле, полубог, получеловек - Геракл - могучий сын царя богов Зевса, совершив все 12 подвигов, потерял семью и теперь находит утешение только в кровавых битвах.
За эти годы он собирает вокруг себя шестерых таких же потерянных воинов, единственным смыслом жизни для которых стали сражения и присутствие смертельной опасности. Эти мужчины и женщина никогда не задают вопрос, где, почему или с кем они идут сражаться; только, сколько им заплатят. Зная это, фракийский царь Котис нанимает этих воинов, чтобы они обучили его солдат и сделали из них самую сильную и великую армию всех времен.
Рейтинг:

MPAA: PG-13 - Детям до 13 лет просмотр не желателен
Примечание: Отсутствует дубляж в сценах, вошедших в расширенную версию.Есть субтитры на разш.места.
Качество: BDRip 720p
Формат: MKV
Видео кодек: AVC
Аудио кодек:AC3
Видео: AVC, 1280x536 (2.40:1), 4648 kbps, 23,976 fps, 0,283 bpp
Аудио №1: русский / AC3 / 2.0 / 48 kHz / 192 kbps / 16 bit ||
Аудио №2: английский / AC3 / 5.1 / 48 kHz / 640 kbps / 16 bit
Навигация по главам: есть

• За работу с русскими субтитрами, благодарим сайт notabenoid.com, переводчика Dimanchez.
General
Unique ID : 249098684603427318178508281828812514656 (0xBB66A95D35C073E4AEDECA6F4D6FE560)
Complete name : D:\Торенты\Hercules.2014.Extended.BDRip.720p.NNM-CLUB.mkv
Format : Matroska
Format version : Version 2
File size : 3.89 GiB
Duration : 1h 41mn
Overall bit rate : 5 482 Kbps
Movie name : Hercules (2014)
Encoded date : UTC 2014-10-27 23:36:57
Writing application : mkvmerge v7.2.0 ('On Every Street') 64bit built on Sep 13 2014 15:52:10
Writing library : libebml v1.3.0 + libmatroska v1.4.1

Video
ID : 1
Format : AVC
Format/Info : Advanced Video Codec
Format profile : High@L4.1
Format settings, CABAC : Yes
Format settings, ReFrames : 5 frames
Codec ID : V_MPEG4/ISO/AVC
Duration : 1h 41mn
Bit rate : 4 648 Kbps
Width : 1 280 pixels
Height : 536 pixels
Display aspect ratio : 2.40:1
Frame rate : 23.976 fps
Color space : YUV
Chroma subsampling : 4:2:0
Bit depth : 8 bits
Scan type : Progressive
Bits/(Pixel*Frame) : 0.283
Stream size : 3.22 GiB (83%)
Writing library : x264 core 142 r2479 dd79a61
Encoding settings : cabac=1 / ref=5 / deblock=1:-3:-3 / analyse=0x3:0x113 / me=umh / subme=8 / psy=1 / psy_rd=1.00:0.00 / mixed_ref=1 / me_range=16 / chroma_me=1 / trellis=1 / 8x8dct=1 / cqm=0 / deadzone=21,11 / fast_pskip=1 / chroma_qp_offset=-2 / threads=12 / lookahead_threads=2 / sliced_threads=0 / nr=0 / decimate=1 / interlaced=0 / bluray_compat=0 / constrained_intra=0 / bframes=3 / b_pyramid=2 / b_adapt=2 / b_bias=0 / direct=3 / weightb=1 / open_gop=0 / weightp=2 / keyint=240 / keyint_min=24 / scenecut=40 / intra_refresh=0 / rc_lookahead=50 / rc=2pass / mbtree=1 / bitrate=4648 / ratetol=1.0 / qcomp=0.60 / qpmin=0 / qpmax=69 / qpstep=4 / cplxblur=20.0 / qblur=0.5 / ip_ratio=1.40 / aq=1:1.00
Language : English
Default : Yes
Forced : No

Audio #1
ID : 2
Format : AC-3
Format/Info : Audio Coding 3
Mode extension : CM (complete main)
Codec ID : A_AC3
Duration : 1h 41mn
Bit rate mode : Constant
Bit rate : 192 Kbps
Channel(s) : 2 channels
Channel positions : Front: L R
Sampling rate : 48.0 KHz
Bit depth : 16 bits
Compression mode : Lossy
Stream size : 140 MiB (4%)
Title : Line
Language : Russian
Default : Yes
Forced : No

Audio #2
ID : 3
Format : AC-3
Format/Info : Audio Coding 3
Mode extension : CM (complete main)
Codec ID : A_AC3
Duration : 1h 41mn
Bit rate mode : Constant
Bit rate : 640 Kbps
Channel(s) : 6 channels
Channel positions : Front: L C R, Side: L R, LFE
Sampling rate : 48.0 KHz
Bit depth : 16 bits
Compression mode : Lossy
Stream size : 465 MiB (12%)
Language : English
Default : No
Forced : No

Text #1
ID : 4
Format : UTF-8
Codec ID : S_TEXT/UTF8
Codec ID/Info : UTF-8 Plain Text
Title : Forced [Dimanchez]
Language : Russian
Default : Yes
Forced : No

Text #2
ID : 5
Format : UTF-8
Codec ID : S_TEXT/UTF8
Codec ID/Info : UTF-8 Plain Text
Title : Full
Language : English
Default : No
Forced : No

Text #3
ID : 6
Format : UTF-8
Codec ID : S_TEXT/UTF8
Codec ID/Info : UTF-8 Plain Text
Title : SDH
Language : English
Default : No
Forced : No

Menu
00:00:00.000 : en:00:00:00.000
00:08:10.782 : en:00:08:10.782
00:14:15.813 : en:00:14:15.813
00:23:38.250 : en:00:23:38.250
00:31:23.757 : en:00:31:23.757
00:41:12.136 : en:00:41:12.136
00:51:34.341 : en:00:51:34.341
00:57:31.281 : en:00:57:31.281
01:05:57.620 : en:01:05:57.620
01:16:07.855 : en:01:16:07.855
01:24:28.897 : en:01:24:28.897
01:34:24.701 : en:01:34:24.701
pb.wtf



Скачать Геракл через торрент http://i68.fastpic.ru/big/2014/1028/c9/b5048ab656dd887e3f90f6cc9ef34ac9.png Скачать фильм Геракл через торрент бесплантно в хорошем качестве Описание: Более тысячи лет назад измученная душа скиталась по Земле, полубог, получеловек - Геракл - могучий сын царя богов Зевса, совершив ... 9.6 10 145
Info! Золотая раздача, скачанное не засчитывается.
Торрент: Зарегистрирован [2014-10-28 01:04] · скачан: 5 421 раз
Статус: ∑ поглощено
Размер: 3.89 GB
Как cкачать? Как скачать Геракл через торрент | qTorrent

% Раздел Тема Автор DL S | L
Фильмы [HD 720p, 1080p] (Хороший звук DUB, MVO) [ 3.87 GB ] Геракл / Hercules [2014 BDRip 1080p-HEVC 10bit + VO] [Расширенная версия / Extended Cut] ADVOKAT69 Скачать
1 | 0
Ultra HD (UHD: 2K, 4K, 8K) — видео сверхвысокой чёткости [ 56.12 GB ] Геракл: Начало легенды / The Legend of Hercules [2014 UHD BDRemux 2160p] - [] sheker187 Скачать
1 | 0
Фильмы 2014 [DVDrip, WEB-DLRip, HDrip] [ 2.18 GB ] Геракл: Начало легенды / The Legend of Hercules [2014 Болгария HDRip-AVC] - [] От R.G. PiratFilms White Smoke Скачать
1 | 0
Фильмы с авторской озвучкой [ 1.46 GB ] Геракл / Hercules [2014 BDRip] [Расширенная версия] [AVO] killermax2013 Скачать
1 | 0
Фильмы [HD 720p, 1080p] (Хороший звук DUB, MVO) [ 11.02 GB ] Геракл / Hercules [2014 BDRip 1080p Dub ] Seedtank Скачать
1 | 0
Фильмы 2014 [DVDrip, WEB-DLRip, HDrip] [ 2.19 GB ] Геракл / Hercules [2014 BDRip - [ ] [Theatrical Cut] Ворон Скачать
1 | 0
Фильмы (DVD фильмы) [ 7.15 GB ] Геракл / Hercules [2014 DVD9] R5 voovaz Скачать
1 | 0

28-11-2019 20:33  

Отключить всю рекламу на сайте

28-10-2014 15:12 Геракл Скачать торрент  

зачёт конечно фильмец на разок но я в восторгеpb.wtf



29-10-2014 11:15 Геракл Скачать торрент  

Да,я так долго ждал качества,а выходит все зря.Фильм ни о чем.pb.wtf



29-10-2014 13:20 Геракл Скачать торрент  

не досмотрел...фильм полная :cansored:pb.wtf



30-10-2014 10:11 Геракл Скачать торрент  

нормальный фильмец! pb.wtf



30-10-2014 13:21 Геракл Скачать торрент  

классный фильм. смотрел в 3D. зачетpb.wtf



30-10-2014 13:40 Геракл Скачать торрент  

Неплохой фильм, но ожидал большегоpb.wtf



31-10-2014 17:21 Геракл Скачать торрент  

Спасибо забираю!!! Давно ждал!!!!pb.wtf



01-11-2014 11:52 Геракл Скачать торрент  

Спасибо. Давно ждал!pb.wtf



02-11-2014 22:04 Геракл Скачать торрент  

Ждал давно, но честно говоря разочаровался полностью.pb.wtf



05-11-2014 02:38 Геракл Скачать торрент  

звук ужас. то норм, то нет перевода, то из колодца кинозала. pb.wtf



08-11-2014 06:07 Геракл Скачать торрент  

timenura писал(а):

звук ужас. то норм, то нет перевода, то из колодца кинозала.

Полностью с тобой согласен... раздача явно не заслуживает золота.....pb.wtf



10-11-2014 22:39 Геракл Скачать торрент  

Ну что поделать? Посмотреть всё равно нужно ! pb.wtf



12-11-2014 19:55 Геракл Скачать торрент  

Cпасибо за раздачу, фильм на троечку. И дорожка с переводом постоянно пропадает pb.wtf



    Дорогой пользователь! Огромная просьба, поблагодарите релизера, оцените раздачу и оставьте свои комментарий, если Вы скачали Геракл через торрент бесплатно! Внесите свою лепту в развитие PiratBit!
    Комментировать посты могут только пользователи прошедшие не сложную регистрацию
    Показать сообщения:    

    Геракл через торрент
    Скачать бесплатно Геракл
    Геракл скачать торрент
    Геракл смотреть онлайн
    Cкачать фильм Геракл бесплатно
    Геракл скачать торрент в хорошем качестве
    Геракл смотреть онлайн бесплатно в хорошем качестве


    Вы не можете начинать темы
    Вы не можете отвечать на сообщения
    Вы не можете редактировать свои сообщения
    Вы не можете удалять свои сообщения
    Вы не можете голосовать в опросах
    Вы не можете прикреплять файлы к сообщениям
    Вы можете скачивать файлы