Ссылка на приватное зеркало нашего сайта всего за 1$. Внимание количество ограничено!!!

2 сезон

iTunes

1 сезон

1

iTunes

iTunes

iTunes

1 сезон

RePack

30

ИГРА 18+

pack

ВАЖНО

!!Акция!!

Alien_RageХит недели

RePack

MK11
pack

Забери бонус

RePack

jed

!!Акция!!

Alien_Rage

RePack

fifa19

RePack

Assassins Creed: Odyssey

RePack

NEED FOR SPEED™ PAYBACK

4 сезон

9 сезон

Бесстыжие 9 сезон

Все сериалы

все сериалы на PB.wtf

RePack

FAR CRY 5
  

Кожа, в которой я живу / La piel que habito (Педро Альмодовар) [2011, Испания, триллер, криминал, драма, BDRip 1080p,Дубляж, Авторский (одноголосый) pb.wtf

Кожа, в которой я живу через торрент pb.wtf

Размер: 11.55 GB | Добавлен: 5 лет 11 мес. назад | Торрент скачан:127 раз
Скачать  

28-10-2014 13:58 Кожа, в которой я живу Скачать торрент  

Название: Кожа, в которой я живу
Оригинальное название: La piel que habito (The Skin I Live In)
Год выпуска: 2011
Жанр: триллер, криминал, драма
Выпущено: Испания
Продолжительность: 02:00:17
Перевод: Дубляж - [Лицензия], Авторский (одноголосый - Ю.Немахов)


Режиссер: Педро Альмодовар / Pedro Almodóvar
В ролях: Антонио Бандерас (Robert Ledgard), Елена Анайя (Vera Cruz), Мариса Паредес (Marilia), Хан Корнет (Vicente), Роберто Аламо (Zeca), Эдуард Фернандес (Fulgencio), Хосе Луис Гомес (Presidente del Instituto de Biotecnología), Бланка Суарес (Norma Ledgard), Суси Санчес (Madre de Vicente), Барбара Ленни (Cristina), Фернандо Кайо (Médico), Чема Руис (Policía)

Сюжет фильма:
Всемирно известный хирург Роберт Ледгард открыл секрет создания искусственной человеческой кожи. Он уверяет коллег, что производит эксперименты на мышах, однако тайно держит взаперти в своём загородном доме молодую женщину по имени Вера, которая и является основным объектом его экспериментов. В отсутствие доктора за ней присматривает престарелая служанка Марилия.
Однажды в отсутствие доктора в дом является блудный сын Марилии, Сека, в карнавальном костюме тигра. Он просит мать спрятать его в доме от полиции, однако, узнав о существовании таинственной пленницы, врывается к ней...



Качество: BDRip 1080p (исходник Blu-ray)
Формат: AVC(библиотека кодирования x.264)
Контейнер (Расширение): MKV
Видео кодек: AVC
Аудио кодек:AC3
Видео: AVC, 1918x1036 (1.851), 11825 Кбит/сек, 23,976 кадр/сек, 0,248 Бит/[Пиксели*Кадры]
Аудио №1: русский / AC3 / 5.1 / 48 kHz / 640 kbps / 16 bit |Дубляж, BD Rus, Парадиз|
Аудио №2: русский / AC3 / 5.1 / 48 kHz / 640 kbps / 16 bit |Авторский, Ю.Немахов|
Аудио №3: Spanish / AC3 / 5.1 / 48 kHz / 640 kbps / 16 bit
Субтитры: русские (Russian), английские (English)
Навигация по главам(Чаптеры): есть



Автор рипа: Сообщество:
Format : Matroska
Format version : Version 2
File size : 11.6 GiB
Duration : 2h 0mn
Overall bit rate : 13.7 Mbps
Movie name : Kozha, v kotoroj ja zhivu.(2011).BDRip.1080p.[denis100]
Encoded date : UTC 2014-10-28 13:02:36
Writing application : mkvmerge v5.8.0 ('No Sleep / Pillow') built on Sep 2 2012 15:37:04
Writing library : libebml v1.2.3 + libmatroska v1.3.0

Video
ID : 1
Format : AVC
Format/Info : Advanced Video Codec
Format profile : High@L4.1
Format settings, CABAC : Yes
Format settings, ReFrames : 4 frames
Codec ID : V_MPEG4/ISO/AVC
Duration : 2h 0mn
Bit rate : 11.8 Mbps
Width : 1 918 pixels
Height : 1 036 pixels
Display aspect ratio : 1.85:1
Frame rate mode : Constant
Frame rate : 23.976 fps
Color space : YUV
Chroma subsampling : 4:2:0
Bit depth : 8 bits
Scan type : Progressive
Bits/(Pixel*Frame) : 0.248
Stream size : 9.71 GiB (84%)
Title : Kozha, v kotoroj ja zhivu.(2011).BDRip.1080p.[denis100]
Writing library : x264 core 142 r2479 dd79a61
Encoding settings : cabac=1 / ref=4 / deblock=1:-3:-3 / analyse=0x3:0x133 / me=umh / subme=11 / psy=1 / psy_rd=1.00:0.10 / mixed_ref=1 / me_range=32 / chroma_me=1 / trellis=2 / 8x8dct=1 / cqm=0 / deadzone=21,11 / fast_pskip=0 / chroma_qp_offset=-3 / threads=6 / lookahead_threads=1 / sliced_threads=0 / nr=0 / decimate=1 / interlaced=0 / bluray_compat=0 / constrained_intra=0 / bframes=7 / b_pyramid=2 / b_adapt=2 / b_bias=0 / direct=3 / weightb=1 / open_gop=0 / weightp=2 / keyint=240 / keyint_min=23 / scenecut=40 / intra_refresh=0 / rc=2pass / mbtree=0 / bitrate=11825 / ratetol=1.0 / qcomp=0.60 / qpmin=0 / qpmax=69 / qpstep=4 / cplxblur=20.0 / qblur=0.5 / ip_ratio=1.40 / pb_ratio=1.30 / aq=1:0.90
Language : English
Default : Yes
Forced : No

Audio #1
ID : 2
Format : AC-3
Format/Info : Audio Coding 3
Mode extension : CM (complete main)
Format settings, Endianness : Big
Codec ID : A_AC3
Duration : 2h 0mn
Bit rate mode : Constant
Bit rate : 640 Kbps
Channel(s) : 6 channels
Channel positions : Front: L C R, Side: L R, LFE
Sampling rate : 48.0 KHz
Bit depth : 16 bits
Compression mode : Lossy
Stream size : 551 MiB (5%)
Title : Дубляж, BD Rus, Парадиз
Language : Russian
Default : Yes
Forced : No

Audio #2
ID : 3
Format : AC-3
Format/Info : Audio Coding 3
Mode extension : CM (complete main)
Format settings, Endianness : Big
Codec ID : A_AC3
Duration : 2h 0mn
Bit rate mode : Constant
Bit rate : 640 Kbps
Channel(s) : 6 channels
Channel positions : Front: L C R, Side: L R, LFE
Sampling rate : 48.0 KHz
Bit depth : 16 bits
Compression mode : Lossy
Stream size : 551 MiB (5%)
Title : Авторский, Ю.Немахов
Language : Russian
Default : No
Forced : No

Audio #3
ID : 4
Format : AC-3
Format/Info : Audio Coding 3
Mode extension : CM (complete main)
Format settings, Endianness : Big
Codec ID : A_AC3
Duration : 2h 0mn
Bit rate mode : Constant
Bit rate : 640 Kbps
Channel(s) : 6 channels
Channel positions : Front: L C R, Side: L R, LFE
Sampling rate : 48.0 KHz
Bit depth : 16 bits
Compression mode : Lossy
Stream size : 551 MiB (5%)
Title : Spanish
Language : Spanish
Default : No
Forced : No

Text #1
ID : 5
Format : UTF-8
Codec ID : S_TEXT/UTF8
Codec ID/Info : UTF-8 Plain Text
Title : Russian
Language : Russian
Default : No
Forced : No

Text #2
ID : 6
Format : UTF-8
Codec ID : S_TEXT/UTF8
Codec ID/Info : UTF-8 Plain Text
Title : English
Language : English
Default : No
Forced : No

Menu
00:00:00.000 : es:Chapter 01
00:05:01.259 : es:Chapter 02
00:13:50.913 : es:Chapter 03
00:21:55.314 : es:Chapter 04
00:27:43.203 : es:Chapter 05
00:37:22.990 : es:Chapter 06
00:46:01.133 : es:Chapter 07
00:54:51.371 : es:Chapter 08
01:01:19.050 : es:Chapter 09
01:07:48.564 : es:Chapter 10
01:14:10.487 : es:Chapter 11
01:23:21.037 : es:Chapter 12
01:27:39.796 : es:Chapter 13
01:36:22.860 : es:Chapter 14
01:44:53.120 : es:Chapter 15
01:50:05.056 : es:Chapter 16
x264 [info]: frame I:982 Avg QP:15.79 size:254382
x264 [info]: frame P:35826 Avg QP:17.83 size:111346
x264 [info]: frame B:136232 Avg QP:20.38 size: 47193
pb.wtf



Скачать Кожа, в которой я живу через торрент http://4.firepic.org/4/images/2014-10/27/phj4blgnrd1z.png Скачать фильм Кожа, в которой я живу через торрент бесплантно в хорошем качестве В ролях: Антонио Бандерас (Robert Ledgard), Елена Анайя (Vera Cruz), Мариса Паредес (Marilia), Хан Корнет (Vicente), Роберто Аламо (Zeca), ... 10 10 2
Info! Серебряная раздача, засчитывается только 50% скачанного.
Торрент: Зарегистрирован [2014-10-28 13:58] · скачан: 127 раз
Статус: √ проверено
Размер: 11.55 GB
Как cкачать? Как скачать Кожа, в которой я живу через торрент | qTorrent

% Раздел Тема Автор DL S | L
Арт-хаус и авторское кино [ 2.91 GB ] Кожа в которой я живу / La piel que habito / The Skin I Live In [2011 BDRip-AVC] DUB + Original + Sub -=Cherry=- Скачать
1 | 0
Арт-хаус и авторское кино [ 1.37 GB ] Кожа в которой я живу / La piel que habito [2011 HDRip лицензия] coc900 Скачать
1 | 0
Арт-хаус и авторское кино [ 703 MB ] Кожа в которой я живу / La piel que habito [2011 DVDRip лицензия] Sудья Скачать
1 | 0
Арт-хаус и авторское кино [ 7.33 GB ] Кожа в которой я живу / La piel que habito [2011 DVD9] R5 «Парадиз Видео» voovaz Скачать
1 | 0

28-11-2019 20:33  

Отключить всю рекламу на сайте

    Дорогой пользователь! Огромная просьба, поблагодарите релизера, оцените раздачу и оставьте свои комментарий, если Вы скачали Кожа, в которой я живу через торрент бесплатно! Внесите свою лепту в развитие PiratBit!
    Комментировать посты могут только пользователи прошедшие не сложную регистрацию
    Показать сообщения:    

    Кожа, в которой я живу через торрент
    Скачать бесплатно Кожа, в которой я живу
    Кожа, в которой я живу скачать торрент
    Кожа, в которой я живу смотреть онлайн
    Cкачать фильм Кожа, в которой я живу бесплатно
    Кожа, в которой я живу скачать торрент в хорошем качестве
    Кожа, в которой я живу смотреть онлайн бесплатно в хорошем качестве


    Вы не можете начинать темы
    Вы не можете отвечать на сообщения
    Вы не можете редактировать свои сообщения
    Вы не можете удалять свои сообщения
    Вы не можете голосовать в опросах
    Вы не можете прикреплять файлы к сообщениям
    Вы можете скачивать файлы