Ссылка на приватное зеркало всего за 1$. Внимание количество ограничено!!!

iTunes

iTunes

iTunes

1

iTunes

iTunes

iTunes

iTunes

iTunes

30
pack

Новость дня

ВАЖНО

!!Акция!!

Alien_RageХит недели

RePack

Resident Evil 21

ИГРА 18+

pack

RePack

jed

!!Акция!!

Alien_Rage

RePack

fifa19

RePack

Assassins Creed: Odyssey

RePack

NEED FOR SPEED™ PAYBACK

4 сезон

9 сезон

Бесстыжие 9 сезон

Все сериалы

все сериалы на PB.wtf

RePack

FAR CRY 5
  

Крестоносцы / Krzyzacy (Aleksander Ford (Александр Форд)) [1960 г., Исторический, DVDRip, Профессиональный многоголосый] pb.wtf

Крестоносцы через торрент pb.wtf

Размер: 1.37 GB | Добавлен: 5 лет 5 мес. назад | Торрент скачан:20 раз
Скачать  

28-10-2014 16:32 Крестоносцы Скачать торрент  

Крестоносцы / Krzyzacy
Год выпуска: 1960
Страна: Польша
Жанр: Исторический
Продолжительность: 02:44:00
Перевод: Профессиональный многоголосый
Субтитры: Отсутствуют

Режиссер: Aleksander Ford (Александр Форд)
Кинокомпания: Zespół Filmowy Studio
Сценарий: Ежи Стефан Ставинский

В ролях: Aleksander Fogiel (Александр Фогель), Henryk Borowski (Генрик Боровски), Andrzej Szalawski (Анджей Шалявский), Grazyna Staniszewska (Гражина Станишевска)

Описание: Действие фильма разворачивается накануне и во время Грюнвальдской битвы 1410 года.
Тевтонский орден распространяет своё влияние на все окрестности: грабежи, насилие, принуждение к рабству.
Шляхтич Юранд противодействует грабежам крестоносцев ордена.
Король Ягелло и князь Мазовецкий стремятся предотвратить конфликт с помощью переговоров. Крестоносцы похищают дочь шляхтича Юранда, который оказывает им сопротивление, и "соглашаются" вернуть её при условии, что сам Юранд приедет за ней в Щитно. Юранда унижают и ослепляют, так и не отдав ему дочь.
Фильм закачивается попыткой художественной реконструкции событий Грюнвальдской битвы и смертью обезумевшей дочери Юранда, замученной в плену.
C долей художественного вымысла показаны "дикие лесные" люди в звериных шкурах (жмудь).

Качество: DVDRip
Формат: AVI
Видео кодек: DivX
Аудио кодек: MP3
Видео: 560x320 (1.75:1), 25 fps, build 1328 ~1042 kbps
Аудио#1: 48 kHz, MPEG Layer 3, 2 ch, ~128. kbps

















General
Complete name : H:\КЛАССИКА США\Крестоносцы.avi
Format : AVI
Format/Info : Audio Video Interleave
File size : 1.37 GiB
Duration : 2h 44mn
Overall bit rate mode : Variable
Overall bit rate : 1 191 Kbps
Writing application : VirtualDubMod 1.5.4.1 (build 2178/release)
Writing library : VirtualDubMod build 2178/release

Video
ID : 0
Format : MPEG-4 Visual
Format settings, BVOP : Yes
Format settings, QPel : No
Format settings, GMC : No warppoints
Format settings, Matrix : Default (H.263)
Codec ID : DX50
Codec ID/Hint : DivX 5
Duration : 2h 44mn
Bit rate : 1 043 Kbps
Width : 560 pixels
Height : 320 pixels
Display aspect ratio : 16:9
Frame rate : 25.000 fps
Color space : YUV
Chroma subsampling : 4:2:0
Bit depth : 8 bits
Scan type : Progressive
Compression mode : Lossy
Bits/(Pixel*Frame) : 0.233
Stream size : 1.20 GiB (88%)
Writing library : DivX 5.2.1 (WaffleDay) (UTC 2004-09-08)

Audio
ID : 1
Format : MPEG Audio
Format version : Version 1
Format profile : Layer 3
Mode : Joint stereo
Mode extension : MS Stereo
Codec ID : 55
Codec ID/Hint : MP3
Duration : 2h 44mn
Bit rate mode : Variable
Bit rate : 135 Kbps
Nominal bit rate : 128 Kbps
Channel(s) : 2 channels
Sampling rate : 48.0 KHz
Compression mode : Lossy
Stream size : 159 MiB (11%)
Alignment : Aligned on interleaves
Interleave, duration : 24 ms (0.60 video frame)
Interleave, preload duration : 137 ms
Writing library : LAME3.96r
Encoding settings : -m j -V 4 -q 2 -lowpass 17.5 --abr 128

pb.wtf



Скачать Крестоносцы через торрент http://i65.fastpic.ru/big/2014/1028/35/4ebb4bf9c832e42cef94f8c994ce7d35.jpg Скачать фильм Крестоносцы через торрент бесплантно в хорошем качестве Описание: Действие фильма разворачивается накануне и во время Грюнвальдской битвы 1410 года.Тевтонский орден распространяет своё влияние на ... 10 10 2
Торрент: Зарегистрирован [2014-10-28 16:32] · скачан: 20 раз
Статус: √ проверено
Размер: 1.37 GB
Как cкачать? Как скачать Крестоносцы через торрент | qTorrent

28-11-2019 20:33  

Отключить всю рекламу на сайте

    Дорогой пользователь! Огромная просьба, поблагодарите релизера, оцените раздачу и оставьте свои комментарий, если Вы скачали Крестоносцы через торрент бесплатно! Внесите свою лепту в развитие PiratBit!
    Комментировать посты могут только пользователи прошедшие не сложную регистрацию
    Показать сообщения:    

    Крестоносцы через торрент
    Скачать бесплатно Крестоносцы
    Крестоносцы скачать торрент
    Крестоносцы смотреть онлайн
    Cкачать фильм Крестоносцы бесплатно
    Крестоносцы скачать торрент в хорошем качестве
    Крестоносцы смотреть онлайн бесплатно в хорошем качестве


    Вы не можете начинать темы
    Вы не можете отвечать на сообщения
    Вы не можете редактировать свои сообщения
    Вы не можете удалять свои сообщения
    Вы не можете голосовать в опросах
    Вы не можете прикреплять файлы к сообщениям
    Вы можете скачивать файлы