Наша группа ВК в очередной раз забанена мы уходим в Телеграм, присоединяйтесь!!!

Лицензия

30

iTunes

мы

iTunes

1

1 сезон

Чернобыль

iTunes

1+1

iTunes

Закатать в асфальт

8 сезон

Игра престолов

1 сезон

Ральф против интернета

ИГРА 18+

pack

ВАЖНО

!!Акция!!

Alien_RageХит недели

RePack

Resident Evil 21
pack

RePack

Metro:Exodus

!!Акция!!

Alien_Rage

RePack

fifa19

RePack

Assassins Creed: Odyssey

RePack

NEED FOR SPEED™ PAYBACK

3 сезон

9 сезон

Бесстыжие 9 сезон

Все сериалы

все сериалы на PB.wtf

RePack

FAR CRY 5
Ребята, катастрофически не хватает 2730р. для оплаты серверов за АПРЕЛЬ (всвязи с блокировками трафик упал в 3 раза), 1-2р., выручайте.
  

Война крестоносцев - Последняя долина / The Last Valley (Джеймс Клавелл / James Clavell) [1970 г., Приключения, История, Военный,, DVDRip, Профессиональный многоголосый] pb.wtf

Война крестоносцев - Последняя долина через торрент pb.wtf

Качают: 1 [ 0 KB/s ]
Размер: 2.06 GB | Добавлен: 4 года 6 мес. назад | Торрент скачан:75 раз
Скачать  

28-10-2014 17:34 Война крестоносцев - Последняя долина Скачать торрент  

Война крестоносцев - Последняя долина / The Last Valley
Съёмки: 25 августа 1969 — Декабрь 1969
Страна: США, Великобритания
Производство: ABC Pictures Corporation, Seamaster Films
Жанр: Приключения, История, Военный,
Продолжительность: 02:05:22
Перевод: Профессиональный многоголосый
Субтитры: Отсутствуют

Режиссер: Джеймс Клавелл / James Clavell
Продюссер: Джеймс Клавелл, Мартин Бом, Роберт Портер
Сценарий: Джеймс Клавелл, Дж.Б. Пик
оператор: Норман Уорвик, Джон Уилкокс
композитор: Джон Бэрри
художник: Питер Маллинз, Ивонн Блейк
монтаж: Джон Блум

Бюджет: $11 000 000
Премьера в мире: 28 января 1971, ...

В ролях: Майкл Кейн, Омар Шариф, Флоринда Болкан, Найджел Дэвенпорт, Пер Оскарссон, Артур О’Коннелл, Йорго Воягис, Мигель Алехандро, Кристиан Робертс

Описание: «Война крестоносцев» - удивительная история о полной лишенной жизни народа Австрии 17 века на фоне 30-летней войны. Странствующий учитель Вогел попадает в мирную деревню, на которой еще не лежит след будущей войны. Когда армия безжалостных наемников под предводительством «капитана» также обнаруживает этот оазис, жители деревни попадают в бездну горя насилия.

Качество: DVDRip
Формат: AVI
Видео кодек: XviD
Аудио кодек: AC3
Видео: 720x320 (2.25:1), 25 fps, XviD build 46, 2335 kbps
Аудио#1: русский, 48 kHz, AC3 Dolby Digital, 2/0 (L,R) ch, 192 kbps
Аудио#2: английский, 48 kHz, AC3 Dolby Digital, 2/0 (L,R) ch, 256 kbps























General
Complete name : H:\КЛАССИКА США\Война крестоносцев.avi
Format : AVI
Format/Info : Audio Video Interleave
File size : 2.06 GiB
Duration : 2h 5mn
Overall bit rate : 2 354 Kbps
Movie name : Vojna.krestonoscev.1970.XviD.DVDRip.NovaLan
Copyright : R.G. NovaLan
Comment : Data reliza: 24.04.2011

Video
ID : 0
Format : MPEG-4 Visual
Format profile : Simple@L3
Format settings, BVOP : No
Format settings, QPel : No
Format settings, GMC : No warppoints
Format settings, Matrix : Default (H.263)
Codec ID : XVID
Codec ID/Hint : XviD
Duration : 2h 5mn
Bit rate : 1 889 Kbps
Width : 720 pixels
Height : 320 pixels
Display aspect ratio : 2.25:1
Frame rate : 25.000 fps
Color space : YUV
Chroma subsampling : 4:2:0
Bit depth : 8 bits
Scan type : Progressive
Compression mode : Lossy
Bits/(Pixel*Frame) : 0.328
Stream size : 1.65 GiB (80%)
Writing library : XviD 1.1.2 (UTC 2006-11-01)

Audio #1
ID : 1
Format : AC-3
Format/Info : Audio Coding 3
Mode extension : CM (complete main)
Format settings, Endianness : Big
Codec ID : 2000
Duration : 2h 5mn
Bit rate mode : Constant
Bit rate : 192 Kbps
Channel(s) : 2 channels
Channel positions : Front: L R
Sampling rate : 48.0 KHz
Bit depth : 16 bits
Compression mode : Lossy
Stream size : 172 MiB (8%)
Alignment : Aligned on interleaves
Interleave, duration : 32 ms (0.80 video frame)

Audio #2
ID : 2
Format : AC-3
Format/Info : Audio Coding 3
Mode extension : CM (complete main)
Format settings, Endianness : Big
Codec ID : 2000
Duration : 2h 5mn
Source duration : 2h 5mn
Bit rate mode : Constant
Bit rate : 256 Kbps
Channel(s) : 2 channels
Channel positions : Front: L R
Sampling rate : 48.0 KHz
Bit depth : 16 bits
Compression mode : Lossy
Stream size : 230 MiB (11%)
Alignment : Aligned on interleaves
Interleave, duration : 32 ms (0.80 video frame)

pb.wtf



Скачать Война крестоносцев - Последняя долина через торрент http://i67.fastpic.ru/big/2014/1028/da/397d110457d68569ee9ad93dc67c7dda.jpg Скачать фильм Война крестоносцев - Последняя долина через торрент бесплантно в хорошем качестве Описание: «Война крестоносцев» - удивительная история о полной лишенной жизни народа Австрии 17 века на фоне 30-летней войны. Странствующий ... 9.8 10 5
Торрент: Зарегистрирован [2014-10-28 17:34] · скачан: 75 раз
Статус: √ проверено
Размер: 2.06 GB
Как cкачать? Как скачать Война крестоносцев - Последняя долина через торрент | qTorrent


>> Регистрируемся здесь <<






Отзывы и комментарии о схеме читаем и пишем здесь: ---> Отзывы и комментарии о схеме

Новые благодарочки в телеграм довольных пользователей:
скриншот   скриншот   скриншот   скриншот   скриншот

28-10-2014 17:38 Война крестоносцев - Последняя долина Скачать торрент  

Зачетный фильм!!!
Любителям истории в коллекцию самое то.pb.wtf



08-11-2015 10:25 Война крестоносцев - Последняя долина Скачать торрент  

При чем тут правда крестоносцы, не понятно. Но тут Кейн, надо смотреть.pb.wtf



13-06-2017 18:51 Война крестоносцев - Последняя долина Скачать торрент  

Интересный фильм, очень советую посмотреть. Созвездие актеров, Майкл Кейн вообще великолепен (как всегда). Режиссер, продюссер и сценарист Джеймс Клавелл автор многих популярных исторических романов. Сюжет интересен и логичен, красивые пейзажи, колоритные костюмы. Фильм рассказывает о религиозной войне католиков и протестантов, много критики религии. Если для кого-нибудь это болезненно учтите. Картинка иногда не идеальная, но впечатление не портит. Звук нормальный, а вот перевод иногда вызывает вопросы. Спасибо автору раздачи.pb.wtf



    Дорогой пользователь! Огромная просьба, поблагодарите релизера, оцените раздачу и оставьте свои комментарий, если Вы скачали Война крестоносцев - Последняя долина через торрент бесплатно! Внесите свою лепту в развитие PiratBit!
    Комментировать посты могут только пользователи прошедшие не сложную регистрацию
    Показать сообщения:    

    Война крестоносцев - Последняя долина через торрент
    Скачать бесплатно Война крестоносцев - Последняя долина
    Война крестоносцев - Последняя долина скачать торрент
    Война крестоносцев - Последняя долина смотреть онлайн
    Cкачать фильм Война крестоносцев - Последняя долина бесплатно
    Война крестоносцев - Последняя долина скачать торрент в хорошем качестве
    Война крестоносцев - Последняя долина смотреть онлайн бесплатно в хорошем качестве


    Вы не можете начинать темы
    Вы не можете отвечать на сообщения
    Вы не можете редактировать свои сообщения
    Вы не можете удалять свои сообщения
    Вы не можете голосовать в опросах
    Вы не можете прикреплять файлы к сообщениям
    Вы можете скачивать файлы